<?xml version="1.0" standalone="no"?>
<!DOCTYPE svg PUBLIC "-//W3C//DTD SVG 1.1//EN" "http://www.w3.org/Graphics/SVG/1.1/DTD/svg11.dtd" >
<svg xmlns="http://www.w3.org/2000/svg" xmlns:xlink="http://www.w3.org/1999/xlink" version="1.1">
<metadata></metadata>
<defs>
<font id="prelo_lightlight" horiz-adv-x="1085" >
<font-face units-per-em="2048" ascent="1536" descent="-512" />
<missing-glyph horiz-adv-x="368" />
<glyph horiz-adv-x="0" />
<glyph horiz-adv-x="682" />
<glyph unicode=" "  horiz-adv-x="368" />
<glyph unicode="&#x09;" horiz-adv-x="368" />
<glyph unicode="&#xa0;" horiz-adv-x="368" />
<glyph unicode="!" horiz-adv-x="378" d="M137 0v236h103v-236h-103zM137 1393h103l-4 -959h-93z" />
<glyph unicode="&#x22;" horiz-adv-x="788" d="M137 1393h103l-11 -242h-82zM547 1393h102l-10 -242h-82z" />
<glyph unicode="#" horiz-adv-x="1239" d="M137 260l8 72h205l37 358h-205l8 72h205l29 262h76l-29 -262h348l29 262h78l-29 -262h205l-8 -72h-205l-37 -358h205l-8 -72h-205l-27 -260h-78l29 260h-348l-29 -260h-76l27 260h-205zM426 332h348l39 358h-348z" />
<glyph unicode="$" horiz-adv-x="1228" d="M137 45l21 92q233 -61 456 -61q97 0 170 25.5t113.5 68t60 91t19.5 101.5q0 38 -10.5 71t-31.5 59t-43.5 47t-56.5 38.5t-59.5 29t-63 23t-57 16.5t-51.5 13q-68 17 -128 39.5t-120 58.5t-102.5 78.5t-69 102t-26.5 127.5q0 88 32.5 155t92 108t136.5 62t173 23v184h51 v-184q126 -4 216 -19t206 -48l-25 -93q-233 62 -426 62q-98 0 -168 -21t-107 -58t-53 -79.5t-16 -93.5q0 -49 20 -91.5t57 -74t75 -55t90 -42t84 -28.5t74 -20q420 -93 420 -383q0 -180 -123 -281.5t-324 -107.5v-185h-51v185q-251 6 -455 65z" />
<glyph unicode="%" horiz-adv-x="1556" d="M106 1126q0 127 69.5 199t195.5 72q127 0 195.5 -71.5t68.5 -199.5q0 -126 -68.5 -198t-195.5 -72q-126 0 -195.5 72t-69.5 198zM176 1126q0 -102 49.5 -157.5t145.5 -55.5q97 0 146.5 55t49.5 158t-49.5 158t-146.5 55q-96 0 -145.5 -55.5t-49.5 -157.5zM362 0l758 1393 h72l-758 -1393h-72zM920 266q0 126 69 198.5t195 72.5q127 0 195.5 -72.5t68.5 -198.5q0 -128 -68.5 -200t-195.5 -72q-126 0 -195 72.5t-69 199.5zM989 266q0 -102 49.5 -157.5t145.5 -55.5q97 0 146.5 55t49.5 158q0 102 -49.5 156.5t-146.5 54.5q-96 0 -145.5 -54.5 t-49.5 -156.5z" />
<glyph unicode="&#x26;" horiz-adv-x="1443" d="M131 346q0 126 78.5 221t279.5 185q-5 6 -30.5 33.5t-36.5 41t-34 42t-34.5 50.5t-26 51.5t-20.5 60t-6 61.5q0 81 31.5 144.5t84 101t116 56.5t133.5 19q154 0 242.5 -78t88.5 -219q0 -50 -16 -94.5t-55 -92.5t-111.5 -97t-177.5 -97l440 -436q133 158 172 418h97 q-17 -130 -67 -259t-136 -229l182 -188l-68 -74l-186 195q-192 -182 -487 -182q-222 0 -337.5 99.5t-115.5 266.5zM238 360q0 -36 8 -71.5t32.5 -76t63.5 -71t106.5 -51t155.5 -20.5q242 0 404 159l-463 467q-70 -32 -117 -59t-94.5 -67t-71.5 -92.5t-24 -117.5zM401 1098 q0 -43 12.5 -82t41 -79.5t52 -68t68.5 -73.5q71 31 124.5 62t101 71t73 88t25.5 102q0 56 -19 99t-45.5 65t-62 36t-60.5 17.5t-48 3.5q-63 0 -112.5 -18.5t-77 -45.5t-45 -62t-23 -62.5t-5.5 -52.5z" />
<glyph unicode="'" horiz-adv-x="378" d="M137 1393h103l-11 -242h-82z" />
<glyph unicode="(" horiz-adv-x="675" d="M162 696q0 251 91 508t253 475h72q-161 -259 -237.5 -498t-76.5 -485q0 -244 76.5 -482t237.5 -501h-72q-162 218 -253 476t-91 507z" />
<glyph unicode=")" horiz-adv-x="675" d="M96 -287q162 262 239 500t77 483q0 247 -77 485.5t-239 497.5h72q162 -219 254 -476t92 -507q0 -249 -92 -507t-254 -476h-72z" />
<glyph unicode="*" horiz-adv-x="860" d="M92 1130l19 64l295 -72l-9 271h66l-6 -271l291 72l20 -64l-299 -51l195 -243l-52 -39l-184 256l-180 -256l-51 39l192 243z" />
<glyph unicode="+" horiz-adv-x="1024" d="M137 500v86h332v329h86v-329h330v-86h-330v-332h-86v332h-332z" />
<glyph unicode="," horiz-adv-x="378" d="M137 0v236h103v-236l-56 -266h-41l31 266h-37z" />
<glyph unicode="-" horiz-adv-x="1024" d="M137 500v86h748v-86h-748z" />
<glyph unicode="." horiz-adv-x="378" d="M137 0v236h103v-236h-103z" />
<glyph unicode="/" horiz-adv-x="1105" d="M127 0l758 1393h92l-758 -1393h-92z" />
<glyph unicode="0" horiz-adv-x="1208" d="M137 707q0 121 12.5 221t45 192.5t84.5 155t134.5 100t190.5 37.5t190.5 -37.5t134 -100t83.5 -155t44.5 -192t12.5 -221.5q0 -124 -12.5 -226.5t-44.5 -197.5t-83.5 -160t-134 -104t-190.5 -39t-190.5 39t-134.5 104t-84.5 160t-45 197.5t-12.5 226.5zM246 707 q0 -641 358 -641q359 0 359 641q0 102 -8.5 186.5t-33 167t-63.5 139t-103.5 91t-150.5 34.5q-72 0 -129 -23t-95.5 -67t-65 -99.5t-41.5 -128t-21 -144t-6 -156.5z" />
<glyph unicode="1" horiz-adv-x="739" d="M66 1137q304 154 452 266h72v-1403h-103v1274l-391 -225z" />
<glyph unicode="2" horiz-adv-x="1126" d="M137 0v104q723 490 723 877q0 86 -25.5 150.5t-61.5 99t-84.5 55.5t-85 27t-71.5 6q-90 0 -174 -20t-188 -72l-33 84q112 51 207 76.5t209 25.5q105 0 186 -33t130 -90.5t73.5 -129t24.5 -154.5q0 -217 -166 -440t-516 -470v-4h702v-92h-850z" />
<glyph unicode="3" horiz-adv-x="1167" d="M137 74l35 80q169 -88 389 -88q95 0 165.5 22.5t107 54t58.5 75.5t27 76t5 68q0 130 -97.5 210.5t-294.5 80.5h-163v86h159q169 0 264 90t95 213q0 35 -6.5 68.5t-27.5 74t-55 70t-95.5 50t-141.5 20.5q-182 0 -352 -88l-33 82q178 94 399 94q198 0 305 -96t107 -266 q0 -129 -81 -218t-204 -124v-4q149 -23 237.5 -117t88.5 -230q0 -183 -116 -280.5t-347 -97.5q-261 0 -428 94z" />
<glyph unicode="4" horiz-adv-x="1208" d="M117 393v88q192 210 361.5 446.5t271.5 465.5h131v-912h209v-88h-209v-393h-103v393h-661zM225 481h553v776h-4q-176 -357 -549 -776z" />
<glyph unicode="5" horiz-adv-x="1167" d="M137 82l33 80q105 -54 193 -75t184 -21q170 0 272.5 98t102.5 270q0 65 -17 123t-53 110t-102 82.5t-156 30.5q-190 0 -313 -172l-80 8l39 777h706v-93h-616l-37 -593l4 -2q57 74 142.5 119.5t185.5 45.5q190 0 296.5 -114t106.5 -316q0 -218 -128.5 -339t-346.5 -121 q-116 0 -214 25t-202 77z" />
<glyph unicode="6" horiz-adv-x="1167" d="M137 614q0 176 29 314.5t79 228.5t121.5 148.5t152 83t175.5 24.5q62 0 118 -7.5t88.5 -15.5t84.5 -24l-14 -82q-139 41 -269 41q-79 0 -145 -24t-112 -62t-82 -92t-58 -108.5t-36.5 -116t-20.5 -110t-8 -95.5l4 -2q69 101 162 159t200 58q200 0 311 -125.5t111 -355.5 q0 -216 -121 -343.5t-307 -127.5q-463 0 -463 634zM248 625q-3 -93 3.5 -169t28.5 -151t60 -125.5t102 -82t150 -31.5q138 0 234 102.5t96 282.5q0 56 -8 106.5t-31.5 104t-60 92t-98.5 63.5t-142 25q-98 0 -184.5 -60t-149.5 -157z" />
<glyph unicode="7" horiz-adv-x="1024" d="M117 1300v93h788v-78q-457 -738 -553 -1315h-112q43 285 207.5 654.5t345.5 641.5v4h-676z" />
<glyph unicode="8" horiz-adv-x="1208" d="M137 342q0 74 29 135t83 106t115 76.5t140 59.5v4q-154 55 -240 137.5t-86 212.5q0 157 117.5 248.5t310.5 91.5q189 0 305.5 -91t116.5 -245q0 -66 -22.5 -118.5t-69 -92.5t-100.5 -69.5t-134 -61.5v-4q85 -33 144.5 -65.5t113.5 -78t81.5 -105t27.5 -132.5 q0 -172 -122.5 -271t-344.5 -99q-221 0 -343 96.5t-122 265.5zM244 350q0 -59 19 -109t59.5 -92t113 -66t170.5 -24q79 0 141 15.5t102.5 42t67 63.5t37.5 77t11 85q0 41 -12.5 77.5t-30 64t-50 54t-59 43.5t-72 38t-73.5 32t-78 29q-72 -24 -127 -50.5t-108 -66t-82 -93.5 t-29 -120zM281 1073q0 -114 89 -185t244 -114q57 19 100 38t84.5 45t68.5 55.5t43 69t16 85.5q0 62 -22.5 110.5t-56.5 77t-79 47t-85.5 25t-80.5 6.5q-39 0 -78.5 -6.5t-84.5 -24t-79 -45.5t-56.5 -75.5t-22.5 -108.5z" />
<glyph unicode="9" horiz-adv-x="1167" d="M137 942q0 216 122 343.5t308 127.5q461 0 461 -635q0 -176 -29 -314t-79 -228t-121.5 -148.5t-151.5 -83t-174 -24.5q-62 0 -118.5 7.5t-88.5 15.5t-86 24l17 79q145 -40 268 -40q79 0 145 24t112 62.5t82.5 92t58 108t36 116t20.5 110t7 95.5l-4 2q-67 -99 -161 -157 t-200 -58q-200 0 -312 126t-112 355zM246 942q0 -56 8 -106.5t31.5 -104t60 -92t98.5 -63.5t142 -25q97 0 184.5 60.5t149.5 156.5q2 77 -2.5 141.5t-17.5 130t-38.5 115t-63 89t-94.5 60.5t-129 21q-138 0 -233.5 -102t-95.5 -281z" />
<glyph unicode=":" horiz-adv-x="378" d="M137 0v236h103v-236h-103zM137 707v235h103v-235h-103z" />
<glyph unicode=";" horiz-adv-x="378" d="M137 0v236h103v-236l-56 -266h-41l31 266h-37zM137 707v235h103v-235h-103z" />
<glyph unicode="&#x3c;" horiz-adv-x="778" d="M137 479v66l502 336v-97l-393 -272l393 -274v-95z" />
<glyph unicode="=" horiz-adv-x="1024" d="M137 295v86h748v-86h-748zM137 705v86h748v-86h-748z" />
<glyph unicode="&#x3e;" horiz-adv-x="778" d="M137 137v96l395 279l-395 279v94l502 -340v-66z" />
<glyph unicode="?" horiz-adv-x="983" d="M117 1335q201 78 368 78q88 0 156 -21t109.5 -54.5t67.5 -79.5t36 -92t10 -97q0 -76 -22 -137.5t-58 -102t-79 -74t-85.5 -61t-78.5 -55t-58 -65t-22 -82.5v-62h-92v62q0 56 21.5 101.5t56 77.5t76 61t83.5 60t76.5 66t56 87t21.5 116q0 254 -299 254q-134 0 -314 -70z M362 0v236h103v-236h-103z" />
<glyph unicode="@" horiz-adv-x="1699" d="M61 518q0 235 107 422t296 291t425 104q206 0 376.5 -83t271.5 -236.5t101 -347.5q0 -110 -32.5 -206t-95 -169.5t-161 -115.5t-221.5 -42h-77v80h-4q-110 -94 -265 -94q-120 0 -191 58.5t-71 164.5q0 242 336 242h195v94q0 99 -46 148t-159 49q-121 0 -260 -43l-19 59 q155 51 297 51q136 0 202.5 -58t66.5 -202v-483q101 0 180 32t126 81t77.5 113.5t41.5 122.5t11 116q0 180 -94 320t-248 213t-338 73q-218 0 -390 -93.5t-270 -266t-98 -394.5q0 -203 89.5 -363.5t247.5 -249.5t355 -89l-6 -62q-163 0 -304 58.5t-240 160t-155.5 242.5 t-56.5 303zM604 350q0 -76 52.5 -120t152.5 -44q141 0 242 86v258h-193q-142 0 -198 -45.5t-56 -134.5z" />
<glyph unicode="A" horiz-adv-x="1331" d="M96 0l510 1403h133l494 -1403h-119l-137 391h-623l-143 -391h-115zM379 483h575l-282 787h-4z" />
<glyph unicode="B" horiz-adv-x="1249" d="M158 0v1393h538q190 0 292 -96t102 -255q0 -127 -62 -213t-182 -116v-4q138 -27 211 -118.5t73 -223.5q0 -171 -101 -269t-292 -98h-579zM266 96h455q143 0 220 72t77 211q0 132 -83 206t-245 74h-424v-563zM266 758h420q142 0 216.5 67.5t74.5 200.5q0 125 -76 196.5 t-215 71.5h-420v-536z" />
<glyph unicode="C" horiz-adv-x="1269" d="M137 707q0 123 14.5 221.5t53 191.5t101.5 155.5t164.5 100t236.5 37.5q232 0 460 -67l-24 -93q-148 36 -241 49t-187 13q-81 0 -147.5 -17.5t-114 -47.5t-84 -75t-58.5 -95.5t-36 -113.5t-19.5 -125t-5.5 -134q0 -109 11 -196t41.5 -171t81 -140t134.5 -90t197 -34 q95 0 188 12.5t240 48.5l24 -92q-231 -65 -460 -65q-135 0 -236.5 38t-164.5 102t-101.5 159.5t-53 197.5t-14.5 230z" />
<glyph unicode="D" horiz-adv-x="1331" d="M158 0v1393h475q559 0 559 -686q0 -707 -559 -707h-475zM266 96h367q446 0 446 611q0 101 -11.5 183.5t-42 159.5t-79.5 129t-128.5 83.5t-184.5 31.5h-367v-1198z" />
<glyph unicode="E" horiz-adv-x="1146" d="M158 0v1393h839v-99h-731v-522h639v-96h-639v-580h742v-96h-850z" />
<glyph unicode="F" horiz-adv-x="1095" d="M158 0v1393h819v-99h-711v-563h619v-96h-619v-635h-108z" />
<glyph unicode="G" horiz-adv-x="1310" d="M137 707q0 123 14.5 221.5t53 191.5t101.5 155.5t164.5 100t236.5 37.5q219 0 444 -67l-25 -93q-149 37 -234.5 49.5t-176.5 12.5q-81 0 -147.5 -17.5t-114 -47.5t-84 -75t-58.5 -95.5t-36 -113.5t-19.5 -125t-5.5 -134q0 -109 11 -196t41.5 -171t81 -140t134.5 -90 t197 -34q178 0 329 100v412h-317v98h424v-582q-67 -37 -118.5 -60t-140 -43.5t-185.5 -20.5q-135 0 -236.5 38t-164.5 102t-101.5 159.5t-53 197.5t-14.5 230z" />
<glyph unicode="H" horiz-adv-x="1310" d="M158 0v1393h108v-621h778v621h107v-1393h-107v676h-778v-676h-108z" />
<glyph unicode="I" horiz-adv-x="423" d="M158 0v1393h108v-1393h-108z" />
<glyph unicode="J" horiz-adv-x="649" d="M43 -8l10 92q66 -10 125 -10q113 0 159 61.5t46 198.5v1059h109v-1065q0 -192 -71 -270t-216 -78q-85 0 -162 12z" />
<glyph unicode="K" horiz-adv-x="1267" d="M158 0v1393h108v-811l752 811h129l-516 -570l530 -823h-135l-475 737l-285 -303v-434h-108z" />
<glyph unicode="L" horiz-adv-x="1105" d="M158 0v1393h108v-1297h721v-96h-829z" />
<glyph unicode="M" horiz-adv-x="1638" d="M158 0v1393h139l522 -1215h4l518 1215h138v-1393h-107v1182h-4l-510 -1182h-82l-508 1182h-4v-1182h-106z" />
<glyph unicode="N" horiz-adv-x="1331" d="M158 0v1393h108l797 -1192h4v1192h104v-1393h-106l-797 1182h-4v-1182h-106z" />
<glyph unicode="O" horiz-adv-x="1413" d="M137 707q0 123 14.5 221.5t53 191.5t101.5 155.5t164.5 100t236.5 37.5t236.5 -37.5t163.5 -100t100.5 -155.5t52.5 -191.5t14 -221.5q0 -125 -14 -226.5t-52.5 -197.5t-100.5 -160.5t-163.5 -103.5t-236.5 -39q-97 0 -177 20t-138.5 55.5t-103 88t-73 113t-46.5 136 t-25 151t-7 163.5zM250 707q0 -105 9.5 -189t39 -170.5t78.5 -144.5t133 -94.5t197 -36.5q82 0 148.5 19t113 51t81.5 80.5t55.5 101t33.5 119.5t17.5 128.5t4.5 135.5q0 73 -4.5 134t-17 126t-33.5 115.5t-56 96.5t-82 76t-113 48t-148 18t-148.5 -18t-113.5 -48t-82 -76 t-56.5 -96.5t-34.5 -115.5t-17.5 -126t-4.5 -134z" />
<glyph unicode="P" horiz-adv-x="1228" d="M158 0v1393h553q190 0 294.5 -109t104.5 -280q0 -181 -103 -285.5t-296 -104.5h-445v-614h-108zM266 711h434q144 0 222.5 75t78.5 218q0 133 -80 211.5t-221 78.5h-434v-583z" />
<glyph unicode="Q" horiz-adv-x="1413" d="M137 707q0 123 14.5 221.5t53 191.5t101.5 155.5t164.5 100t236.5 37.5t236.5 -37.5t163.5 -100t100.5 -155.5t52.5 -191.5t14 -221.5q0 -119 -14 -217t-49.5 -187t-91 -150.5t-142.5 -99t-201 -41.5q28 -44 98.5 -73t159.5 -37q48 -4 97 -4q59 0 118 6v-99 q-69 -8 -131 -8q-44 0 -84 4q-120 11 -213 56t-143 123q-127 4 -223.5 45t-156 106t-96.5 159.5t-51 194.5t-14 222zM250 707q0 -105 9.5 -189t39 -170.5t78.5 -144.5t133 -94.5t197 -36.5q82 0 148.5 19t113 51t81.5 80.5t55.5 101t33.5 119.5t17.5 128.5t4.5 135.5 q0 73 -4.5 134t-17 126t-33.5 115.5t-56 96.5t-82 76t-113 48t-148 18t-148.5 -18t-113.5 -48t-82 -76t-56.5 -96.5t-34.5 -115.5t-17.5 -126t-4.5 -134z" />
<glyph unicode="R" horiz-adv-x="1259" d="M158 0v1393h553q127 0 219 -55.5t136 -145t44 -201.5q0 -158 -89.5 -264t-250.5 -123l385 -604h-127l-371 588h-391v-588h-108zM266 686h420q143 0 229 81t86 224q0 135 -80.5 219t-220.5 84h-434v-608z" />
<glyph unicode="S" horiz-adv-x="1228" d="M137 45l21 92q245 -61 456 -61q95 0 168 25t114 67.5t61 90.5t20 101q0 34 -9 64t-21.5 53t-36.5 45t-42.5 36.5t-52 30t-53 23.5t-57 19t-52 15t-49.5 13q-86 21 -160 53t-141 80t-106 118t-39 155q0 91 35 159.5t97.5 109t143.5 60t180 19.5q223 0 451 -67l-25 -93 q-148 36 -240.5 49t-185.5 13q-96 0 -165.5 -20.5t-107 -57.5t-54.5 -79.5t-17 -94.5q0 -49 19 -91t55 -73t73 -54.5t88.5 -42t85.5 -29t79 -21.5q420 -93 420 -383q0 -187 -131 -288t-345 -101q-246 0 -477 65z" />
<glyph unicode="T" horiz-adv-x="1146" d="M117 1294v99h911v-99h-401v-1294h-107v1294h-403z" />
<glyph unicode="U" horiz-adv-x="1310" d="M158 492v901h108v-901q0 -43 2 -74.5t10.5 -78t23.5 -80.5t44.5 -71.5t70.5 -61t104.5 -39t142.5 -15.5q74 0 133.5 15.5t98.5 39.5t67.5 60.5t43.5 71.5t24 80.5t11 78.5t2 74v901h107v-901q0 -264 -121.5 -388t-374.5 -124t-375 124t-122 388z" />
<glyph unicode="V" horiz-adv-x="1331" d="M96 1393h121l459 -1270h2l442 1270h113l-494 -1403h-133z" />
<glyph unicode="W" horiz-adv-x="1925" d="M96 1393h121l340 -1258h2l342 1258h129l342 -1258h2l340 1258h113l-385 -1403h-142l-335 1231h-4l-336 -1231h-142z" />
<glyph unicode="X" horiz-adv-x="1331" d="M104 0l486 733l-436 660h127l381 -568h4l378 568h127l-438 -660l494 -733h-131l-437 643h-4l-428 -643h-123z" />
<glyph unicode="Y" horiz-adv-x="1269" d="M96 1393h125l414 -787h4l416 787h116l-483 -901v-492h-106v492z" />
<glyph unicode="Z" horiz-adv-x="1146" d="M102 0v82l777 1208v4h-736v99h881v-82l-770 -1211v-4h790v-96h-942z" />
<glyph unicode="[" horiz-adv-x="614" d="M137 -287v1966h379v-67h-270v-1833h270v-66h-379z" />
<glyph unicode="\" horiz-adv-x="1105" d="M127 1393h92l758 -1393h-92z" />
<glyph unicode="]" horiz-adv-x="614" d="M96 -221h273v1833h-273v67h379v-1966h-379v66z" />
<glyph unicode="^" horiz-adv-x="778" d="M137 1044l213 390h76l213 -390h-61l-191 328l-188 -328h-62z" />
<glyph unicode="_" horiz-adv-x="1024" d="M137 -123h748v-67h-748v67z" />
<glyph unicode="`" horiz-adv-x="485" d="M133 1393h86l133 -246h-61z" />
<glyph unicode="a" horiz-adv-x="1034" d="M106 268q0 305 431 305h256v134q0 127 -62 188t-209 61q-158 0 -329 -34l-17 84q184 38 367 38q180 0 266 -74t86 -259v-711h-102v102h-5q-84 -64 -163 -93t-181 -29q-155 0 -246.5 76.5t-91.5 211.5zM209 276q0 -97 70.5 -156t201.5 -59q181 0 312 111v334h-250 q-95 0 -161 -16t-103 -47.5t-53.5 -71.5t-16.5 -95z" />
<glyph unicode="b" d="M137 -2v1436h103v-512h4q63 56 153 89t187 33q105 0 180.5 -40t119 -114t63.5 -167t20 -211t-21 -212t-65.5 -167t-121 -113t-181.5 -40q-95 0 -185 32.5t-153 87.5h-4l-19 -102h-80zM240 176q51 -42 133 -76t174 -34q88 0 151 35.5t97.5 100t49.5 140.5t15 170 q0 444 -313 444q-91 0 -172.5 -33.5t-134.5 -74.5v-672z" />
<glyph unicode="c" horiz-adv-x="983" d="M117 512q0 120 26 214.5t81 167t148.5 111.5t221.5 39q167 0 338 -43l-21 -86q-158 41 -317 41q-80 0 -143 -23t-105 -62.5t-69.5 -96t-39.5 -121.5t-12 -141q0 -96 20 -174t62 -140.5t115 -97t172 -34.5q163 0 317 40l21 -83q-171 -43 -338 -43q-477 0 -477 532z" />
<glyph unicode="d" d="M117 512q0 117 21 211t65.5 167.5t121 113.5t181.5 40q96 0 184.5 -32.5t149.5 -87.5h4v510h102v-1434h-102v102h-4q-62 -56 -151.5 -89t-186.5 -33q-105 0 -181 40t-119.5 113.5t-64 167t-20.5 211.5zM225 512q0 -94 15.5 -170t49.5 -140.5t97 -100t150 -35.5 q93 0 175.5 34.5t131.5 75.5v672q-50 40 -132 74t-175 34q-87 0 -150 -35.5t-97 -99t-49.5 -139.5t-15.5 -170z" />
<glyph unicode="e" d="M117 512q0 120 26 215t81.5 167t149 111t220.5 39q93 0 164 -24t113 -61t69 -89q26 -52 35 -102q8 -45 9 -95q0 -6 -1 -11q0 -78 -16 -156h-740q3 -440 396 -440q187 0 319 40l14 -83q-155 -43 -348 -43q-491 0 -491 532zM227 575h641q13 53 13 101q0 17 -2 33 q-7 112 -76.5 183t-214.5 71q-335 0 -361 -388z" />
<glyph unicode="f" horiz-adv-x="706" d="M51 946v70l168 8v152q0 140 63 199t210 59q41 0 147 -13l-10 -82q-93 11 -117 11q-108 0 -149 -42t-41 -147v-137h276v-78h-276v-946h-103v946h-168z" />
<glyph unicode="g" horiz-adv-x="1136" d="M82 -164q0 141 194 246v4q-43 20 -61 56q-13 27 -13 59q0 11 1 22q5 49 35 98t81 85v4q-81 40 -127.5 112.5t-46.5 173.5q0 162 105 255t293 93q59 0 133 -20h342v-68h-232q144 -85 144 -260q0 -160 -108.5 -247t-278.5 -87q-95 0 -166 29q-38 -35 -58 -74 q-22 -42 -22 -81q0 -34 21 -58q21 -26 65 -28l387 -23q285 -16 285 -215q0 -162 -143 -252t-431 -90q-399 0 -399 266zM168 -150q0 -96 81.5 -152t260.5 -56q125 0 221.5 27.5t155.5 86t59 140.5q0 137 -211 147l-399 20q-85 -52 -126.5 -98.5t-41.5 -114.5zM244 696 q0 -122 80 -192t219 -70q133 0 212 71.5t79 190.5q0 123 -79.5 200t-211.5 77q-147 0 -223 -75.5t-76 -201.5z" />
<glyph unicode="h" d="M137 0v1434h103v-564h4q190 174 395 174q307 0 307 -333v-711h-102v690q0 266 -246 266q-169 0 -358 -155v-801h-103z" />
<glyph unicode="i" horiz-adv-x="378" d="M137 0v1024h103v-1024h-103zM137 1161v232h103v-232h-103z" />
<glyph unicode="j" horiz-adv-x="460" d="M-98 -418l12 82q61 -10 117 -10q108 0 148 41.5t40 146.5v1182h103v-1196q0 -141 -62 -199.5t-209 -58.5q-73 0 -149 12zM219 1161v232h103v-232h-103z" />
<glyph unicode="k" d="M137 0v1434h103v-889l600 479h127l-404 -338l424 -686h-121l-377 629l-249 -197v-432h-103z" />
<glyph unicode="l" horiz-adv-x="378" d="M137 0v1434h103v-1434h-103z" />
<glyph unicode="m" horiz-adv-x="1699" d="M137 0v1024h103v-154h4q81 79 163.5 126.5t186.5 47.5q231 0 287 -188q184 188 372 188q308 0 308 -333v-711h-103v690q0 266 -246 266q-47 0 -93 -14.5t-91 -43.5t-70 -48t-65 -53q8 -66 8 -111v-686h-102v694q-4 262 -246 262q-48 0 -93 -13.5t-90.5 -43.5t-66.5 -46 t-63 -52v-801h-103z" />
<glyph unicode="n" d="M137 0v1024h103v-154h4q190 174 395 174q307 0 307 -333v-711h-102v690q0 266 -246 266q-169 0 -358 -155v-801h-103z" />
<glyph unicode="o" horiz-adv-x="1126" d="M117 512q0 120 24.5 215t76 167t139 111t206.5 39t206.5 -39t139 -111t75.5 -167t24 -215q0 -121 -24 -215.5t-75.5 -167t-139 -111t-206.5 -38.5t-206.5 38.5t-139 110.5t-76 167t-24.5 216zM225 512q0 -96 17 -172.5t54 -140t105 -98.5t162 -35t162 35t105 98.5t54 140 t17 172.5q0 95 -17 171.5t-54 139.5t-105 98t-162 35t-162 -35t-105 -98t-54 -139.5t-17 -171.5z" />
<glyph unicode="p" d="M137 -410v1434h103v-102h4q63 56 153 89t187 33q105 0 180.5 -40t119 -114t63.5 -167t20 -211t-21 -212t-65.5 -167t-121 -113t-181.5 -40q-95 0 -183 32.5t-151 87.5h-4v-510h-103zM240 176q51 -42 133 -76t174 -34q88 0 151 35.5t97.5 100t49.5 140.5t15 170 q0 444 -313 444q-91 0 -172.5 -33.5t-134.5 -74.5v-672z" />
<glyph unicode="q" d="M117 512q0 117 21 211t65.5 167.5t121 113.5t181.5 40q96 0 186 -32.5t154 -87.5h4l18 102h78v-1436h-102v512h-4q-62 -56 -151.5 -89t-186.5 -33q-105 0 -181 40t-119.5 113.5t-64 167t-20.5 211.5zM225 512q0 -94 15.5 -170t49.5 -140.5t97 -100t150 -35.5 q93 0 175.5 34.5t131.5 75.5v672q-50 40 -132 74t-175 34q-87 0 -150 -35.5t-97 -99t-49.5 -139.5t-15.5 -170z" />
<glyph unicode="r" horiz-adv-x="757" d="M137 0v1024h103v-164h4q204 184 415 184v-98q-113 0 -226.5 -48t-192.5 -107v-791h-103z" />
<glyph unicode="s" horiz-adv-x="983" d="M106 23l21 83q168 -43 385 -43q59 0 105 12t73 32.5t45 42t25 47.5t9.5 41t2.5 30q0 35 -10.5 61.5t-39.5 54.5t-87 50.5t-146 40.5q-67 13 -116.5 27.5t-98 38.5t-79 55t-49.5 77t-19 105q0 127 90.5 196.5t263.5 69.5q218 0 389 -43l-20 -86q-177 46 -365 46 q-69 0 -120.5 -16t-76.5 -37t-39.5 -50t-17 -45.5t-2.5 -32.5q0 -35 10 -62t37.5 -55.5t84 -51.5t141.5 -40q94 -20 158.5 -42.5t115 -56.5t74.5 -83t24 -115q0 -140 -90 -217t-262 -77q-245 0 -416 43z" />
<glyph unicode="t" horiz-adv-x="768" d="M51 946v70l168 8l14 287h89v-287h317v-78h-317v-629q0 -132 42.5 -193t157.5 -61q47 0 117 11l10 -82q-73 -12 -157 -12q-144 0 -208.5 71.5t-64.5 251.5v643h-168z" />
<glyph unicode="u" d="M137 311v713h103v-692q0 -266 245 -266q167 0 359 157v801h102v-1024h-102v154h-4q-190 -174 -396 -174q-307 0 -307 331z" />
<glyph unicode="v" horiz-adv-x="1146" d="M113 1024h114l346 -913h5l346 913h110l-401 -1034h-121z" />
<glyph unicode="w" horiz-adv-x="1617" d="M113 1024h112l277 -913h4l256 913h98l266 -913h4l267 913h108l-317 -1034h-113l-264 874h-4l-256 -874h-113z" />
<glyph unicode="x" horiz-adv-x="1116" d="M96 0l398 535l-367 489h121l311 -414h4l305 414h113l-365 -487l402 -537h-123l-344 457h-4l-336 -457h-115z" />
<glyph unicode="y" horiz-adv-x="1146" d="M113 1024h114l361 -930h4l332 930h110l-409 -1112q-64 -180 -152 -261t-217 -81q-70 0 -123 12l10 88q44 -10 93 -10q35 0 67 11t55.5 26t47.5 44t38 49.5t32.5 59t26 57.5t23.5 58q3 7 4 10z" />
<glyph unicode="z" horiz-adv-x="962" d="M74 0v76l665 862v4h-635v82h768v-78l-663 -860v-4h680v-82h-815z" />
<glyph unicode="{" horiz-adv-x="696" d="M137 659v72q30 4 53 14.5t38 22.5t25.5 34t16 38.5t8 47t3 50t0.5 55.5q0 60 -10.5 192t-10.5 195q0 92 22.5 152.5t70 92t104.5 43t141 11.5v-51q-30 0 -46 -0.5t-44 -5t-44 -13.5t-37 -27t-31.5 -43.5t-18.5 -65.5t-8 -91q0 -62 11 -220t11 -222q0 -114 -42 -168.5 t-124 -73.5v-4q82 -19 124 -73t42 -168q0 -64 -11 -222.5t-11 -220.5q0 -51 8 -91t18.5 -65.5t31.5 -43.5t37 -27t44 -13.5t44 -5t46 -0.5v-51q-84 0 -141 11.5t-104.5 43t-70 92t-22.5 152.5q0 63 10.5 195t10.5 192q0 36 -0.5 55t-3 49.5t-8 47t-16 38t-25.5 33.5 t-38 22.5t-53 14.5z" />
<glyph unicode="|" horiz-adv-x="389" d="M158 -205v1802h71v-1802h-71z" />
<glyph unicode="}" horiz-adv-x="696" d="M96 -236q31 0 47 0.5t44.5 5t45 13.5t37 27t31.5 43.5t19 65.5t8 91q0 62 -11.5 220.5t-11.5 222.5q0 115 41.5 168.5t124.5 72.5v4q-83 19 -124.5 73t-41.5 169q0 64 11.5 222t11.5 220q0 51 -8 91t-19 65.5t-31.5 43.5t-37 27t-45 13.5t-44.5 5t-47 0.5v51 q85 0 142 -11.5t104 -43t69.5 -92t22.5 -152.5q0 -63 -10 -195t-10 -192q0 -37 0.5 -55.5t3 -49.5t7.5 -47.5t15.5 -38.5t25.5 -34t38 -22.5t53 -14.5v-72q-26 -4 -47 -11t-35.5 -20t-25.5 -25t-17.5 -33t-10 -36t-5 -42.5t-2 -44t-0.5 -48.5q0 -60 10 -192t10 -195 q0 -92 -22.5 -152.5t-69.5 -92t-104 -43t-142 -11.5v51z" />
<glyph unicode="~" horiz-adv-x="933" d="M92 608q67 87 114.5 122.5t100.5 35.5q51 0 194 -63.5t175 -63.5q23 0 40 5t42.5 28.5t50.5 66.5l33 -32q-36 -71 -74 -105.5t-92 -34.5q-39 0 -183.5 61.5t-183.5 61.5q-24 0 -41.5 -4.5t-54 -30t-86.5 -75.5z" />
<glyph unicode="&#xa2;" horiz-adv-x="1058" d="M123 512q0 233 122.5 379.5t336.5 152.5v185h51v-187q86 -3 153.5 -20t149.5 -51l-12 -82q-68 24 -101.5 35t-84 20.5t-105.5 11.5v-888q55 0 106 9.5t83 20.5t102 37l12 -82q-156 -69 -303 -71v-187h-51v185q-215 6 -337 152t-122 380zM229 512q0 -185 93 -310t260 -134 v886q-112 -5 -193.5 -67.5t-120.5 -159.5t-39 -215z" />
<glyph unicode="&#xa3;" horiz-adv-x="1253" d="M123 0v92h102v574h-102v82h102v317q0 91 34 159.5t96 109t142 60t179 19.5q132 0 252 -31t202 -82l-43 -86q-185 101 -407 101q-98 0 -168.5 -21t-109.5 -59t-56.5 -83t-17.5 -99v-305h501v-82h-501v-574h747v-92h-952z" />
<glyph unicode="&#xa5;" horiz-adv-x="1320" d="M123 1393h123l416 -787h4l413 787h119l-467 -867h344v-65h-360v-461h-109v461h-360v65h342z" />
<glyph unicode="&#xa8;" horiz-adv-x="884" d="M133 1178v215h86v-215h-86zM666 1178v215h86v-215h-86z" />
<glyph unicode="&#xa9;" horiz-adv-x="1566" d="M61 696q0 196 96.5 361t262.5 260.5t362 95.5q197 0 363 -95.5t263 -260.5t97 -361t-97 -361t-263 -260t-363 -95t-362.5 95t-262 260t-96.5 361zM115 696q0 -136 52.5 -259t142 -212t213 -141.5t259.5 -52.5q182 0 336 88.5t244 242t90 334.5t-90 334t-244 241.5 t-336 88.5q-136 0 -259.5 -52.5t-213 -141t-142 -211.5t-52.5 -259zM459 705q0 170 82.5 261t244.5 91q145 0 248 -72l-24 -53q-101 63 -219 63q-261 0 -261 -290q0 -314 261 -314q121 0 217 62l26 -50q-101 -71 -248 -71q-162 0 -244.5 96t-82.5 277z" />
<glyph unicode="&#xab;" horiz-adv-x="1294" d="M137 479v66l502 340v-94l-393 -279l393 -279v-96zM655 479v66l502 340v-94l-395 -279l395 -279v-96z" />
<glyph unicode="&#xad;" horiz-adv-x="1024" d="M137 500v86h748v-86h-748z" />
<glyph unicode="&#xae;" horiz-adv-x="1566" d="M61 696q0 196 96.5 361t262.5 260.5t362 95.5q197 0 363 -95.5t263 -260.5t97 -361t-97 -361t-263 -260t-363 -95t-362.5 95t-262 260t-96.5 361zM115 696q0 -136 52.5 -259t142 -212t213 -141.5t259.5 -52.5q182 0 336 88.5t244 242t90 334.5t-90 334t-244 241.5 t-336 88.5q-136 0 -259.5 -52.5t-213 -141t-142 -211.5t-52.5 -259zM539 344v705h274q119 0 182.5 -60.5t63.5 -161.5q0 -98 -53 -156.5t-148 -66.5l221 -260h-84l-211 252h-178v-252h-67zM606 655h199q184 0 184 172q0 74 -46 117t-130 43h-207v-332z" />
<glyph unicode="&#xb4;" horiz-adv-x="485" d="M133 1147l133 246h86l-157 -246h-62z" />
<glyph unicode="&#xb8;" horiz-adv-x="595" d="M133 -395l8 41q69 -21 115 -21q75 0 107 37.5t32 79.5q0 41 -33 74.5t-116 33.5v150h45v-119q73 -3 122.5 -37.5t49.5 -107.5q0 -71 -51 -113.5t-140 -42.5q-59 0 -139 25z" />
<glyph unicode="&#xbb;" horiz-adv-x="1294" d="M137 137v96l395 279l-395 279v94l502 -340v-66zM655 137v96l394 279l-394 279v94l502 -340v-66z" />
<glyph unicode="&#xc2;" horiz-adv-x="1331" d="M96 0l510 1403h133l494 -1403h-119l-137 391h-623l-143 -391h-115zM379 483h575l-282 787h-4zM414 1495l217 246h67l217 -246h-61l-190 195l-189 -195h-61z" />
<glyph unicode="&#xc7;" horiz-adv-x="1269" d="M137 707q0 123 14.5 221.5t53 191.5t101.5 155.5t164.5 100t236.5 37.5q232 0 460 -67l-24 -93q-148 36 -241 49t-187 13q-81 0 -147.5 -17.5t-114 -47.5t-84 -75t-58.5 -95.5t-36 -113.5t-19.5 -125t-5.5 -134q0 -109 11 -196t41.5 -171t81 -140t134.5 -90t197 -34 q95 0 188 12.5t240 48.5l24 -92q-225 -65 -448 -65v-99q45 -2 81 -15t62.5 -46.5t26.5 -83.5q0 -71 -51 -113.5t-138 -42.5q-58 0 -141 25l10 41q69 -21 117 -21q40 0 68.5 12t42 31.5t19 37.5t5.5 36q0 41 -33 74.5t-116 33.5v130q-127 4 -222 44t-154 104.5t-95.5 158.5 t-50 194.5t-13.5 225.5z" />
<glyph unicode="&#xce;" horiz-adv-x="423" d="M-39 1495l217 246h68l217 -246h-62l-190 195l-188 -195h-62zM156 0v1393h108v-1393h-108z" />
<glyph unicode="&#xd6;" horiz-adv-x="1413" d="M137 707q0 123 14.5 221.5t53 191.5t101.5 155.5t164.5 100t236.5 37.5t236.5 -37.5t163.5 -100t100.5 -155.5t52.5 -191.5t14 -221.5q0 -125 -14 -226.5t-52.5 -197.5t-100.5 -160.5t-163.5 -103.5t-236.5 -39q-97 0 -177 20t-138.5 55.5t-103 88t-73 113t-46.5 136 t-25 151t-7 163.5zM250 707q0 -105 9.5 -189t39 -170.5t78.5 -144.5t133 -94.5t197 -36.5q82 0 148.5 19t113 51t81.5 80.5t55.5 101t33.5 119.5t17.5 128.5t4.5 135.5q0 73 -4.5 134t-17 126t-33.5 115.5t-56 96.5t-82 76t-113 48t-148 18t-148.5 -18t-113.5 -48t-82 -76 t-56.5 -96.5t-34.5 -115.5t-17.5 -126t-4.5 -134zM397 1511v215h86v-215h-86zM930 1511v215h86v-215h-86z" />
<glyph unicode="&#xdb;" horiz-adv-x="1310" d="M158 492v901h108v-901q0 -43 2 -74.5t10.5 -78t23.5 -80.5t44.5 -71.5t70.5 -61t104.5 -39t142.5 -15.5q74 0 133.5 15.5t98.5 39.5t67.5 60.5t43.5 71.5t24 80.5t11 78.5t2 74v901h107v-901q0 -264 -121.5 -388t-374.5 -124t-375 124t-122 388zM403 1495l218 246h67 l217 -246h-61l-191 195l-188 -195h-62z" />
<glyph unicode="&#xdc;" horiz-adv-x="1310" d="M158 492v901h108v-901q0 -43 2 -74.5t10.5 -78t23.5 -80.5t44.5 -71.5t70.5 -61t104.5 -39t142.5 -15.5q74 0 133.5 15.5t98.5 39.5t67.5 60.5t43.5 71.5t24 80.5t11 78.5t2 74v901h107v-901q0 -264 -121.5 -388t-374.5 -124t-375 124t-122 388zM346 1511v215h86v-215 h-86zM879 1511v215h86v-215h-86z" />
<glyph unicode="&#xe2;" horiz-adv-x="1034" d="M106 268q0 305 431 305h256v134q0 127 -62 188t-209 61q-158 0 -329 -34l-17 84q184 38 367 38q180 0 266 -74t86 -259v-711h-102v102h-5q-84 -64 -163 -93t-181 -29q-155 0 -246.5 76.5t-91.5 211.5zM209 276q0 -97 70.5 -156t201.5 -59q181 0 312 111v334h-250 q-95 0 -161 -16t-103 -47.5t-53.5 -71.5t-16.5 -95zM285 1147l217 246h67l217 -246h-61l-190 194l-189 -194h-61z" />
<glyph unicode="&#xe7;" horiz-adv-x="983" d="M117 512q0 120 26 214.5t81 167t148.5 111.5t221.5 39q167 0 338 -43l-21 -86q-158 41 -317 41q-80 0 -143 -23t-105 -62.5t-69.5 -96t-39.5 -121.5t-12 -141q0 -96 20 -174t62 -140.5t115 -97t172 -34.5q163 0 317 40l21 -83q-171 -43 -334 -43v-99q72 -4 122 -38 t50 -107q0 -71 -51.5 -113.5t-138.5 -42.5q-60 0 -140 25l9 41q69 -21 116 -21q40 0 68.5 12t42 31.5t19 37.5t5.5 36q0 42 -32.5 75t-116.5 33v132q-116 5 -201 45.5t-135.5 112t-74 164t-23.5 208.5z" />
<glyph unicode="&#xee;" horiz-adv-x="378" d="M-61 1147l217 246h67l217 -246h-61l-191 194l-188 -194h-61zM137 0v1024h103v-1024h-103z" />
<glyph unicode="&#xf6;" horiz-adv-x="1126" d="M117 512q0 120 24.5 215t76 167t139 111t206.5 39t206.5 -39t139 -111t75.5 -167t24 -215q0 -121 -24 -215.5t-75.5 -167t-139 -111t-206.5 -38.5t-206.5 38.5t-139 110.5t-76 167t-24.5 216zM225 512q0 -96 17 -172.5t54 -140t105 -98.5t162 -35t162 35t105 98.5t54 140 t17 172.5q0 95 -17 171.5t-54 139.5t-105 98t-162 35t-162 -35t-105 -98t-54 -139.5t-17 -171.5zM250 1178v215h86v-215h-86zM782 1178v215h86v-215h-86z" />
<glyph unicode="&#xfb;" d="M137 311v713h103v-692q0 -266 245 -266q167 0 359 157v801h102v-1024h-102v154h-4q-190 -174 -396 -174q-307 0 -307 331zM291 1147l217 246h67l218 -246h-62l-190 194l-189 -194h-61z" />
<glyph unicode="&#xfc;" d="M137 311v713h103v-692q0 -266 245 -266q167 0 359 157v801h102v-1024h-102v154h-4q-190 -174 -396 -174q-307 0 -307 331zM233 1178v215h86v-215h-86zM766 1178v215h86v-215h-86z" />
<glyph unicode="&#x100;" horiz-adv-x="1331" d="M96 0l510 1403h133l494 -1403h-119l-137 391h-623l-143 -391h-115zM362 1591v68h605v-68h-605zM379 483h575l-282 787h-4z" />
<glyph unicode="&#x101;" horiz-adv-x="1034" d="M106 268q0 305 431 305h256v134q0 127 -62 188t-209 61q-158 0 -329 -34l-17 84q184 38 367 38q180 0 266 -74t86 -259v-711h-102v102h-5q-84 -64 -163 -93t-181 -29q-155 0 -246.5 76.5t-91.5 211.5zM209 276q0 -97 70.5 -156t201.5 -59q181 0 312 111v334h-250 q-95 0 -161 -16t-103 -47.5t-53.5 -71.5t-16.5 -95zM242 1243v68h604v-68h-604z" />
<glyph unicode="&#x102;" horiz-adv-x="1331" d="M96 0l510 1403h133l494 -1403h-119l-137 391h-623l-143 -391h-115zM379 483h575l-282 787h-4zM395 1772h49q8 -35 22.5 -66t39.5 -62.5t66 -50t92 -18.5q54 0 96 18.5t66.5 50t38.5 62.5t22 66h49q-19 -134 -93 -198.5t-179 -64.5q-102 0 -175 64.5t-94 198.5z" />
<glyph unicode="&#x103;" horiz-adv-x="1034" d="M106 268q0 305 431 305h256v134q0 127 -62 188t-209 61q-158 0 -329 -34l-17 84q184 38 367 38q180 0 266 -74t86 -259v-711h-102v102h-5q-84 -64 -163 -93t-181 -29q-155 0 -246.5 76.5t-91.5 211.5zM209 276q0 -97 70.5 -156t201.5 -59q181 0 312 111v334h-250 q-95 0 -161 -16t-103 -47.5t-53.5 -71.5t-16.5 -95zM287 1423h49q8 -35 22 -66t39 -62t65.5 -49.5t92.5 -18.5q54 0 96 18.5t66.5 49.5t38.5 62t22 66h49q-19 -134 -93 -198t-179 -64q-102 0 -174.5 64t-93.5 198z" />
<glyph unicode="&#x104;" horiz-adv-x="1331" d="M96 0l510 1403h133l494 -1403q-76 -35 -132.5 -109t-56.5 -137q0 -53 30.5 -82.5t86.5 -29.5q19 0 36 2.5t33.5 9t24.5 10t23.5 13t17.5 10.5l9 -33q-76 -60 -175 -60q-64 0 -110.5 34.5t-46.5 101.5q0 72 50.5 144t125.5 126h-35l-137 391h-623l-143 -391h-115zM379 483 h575l-282 787h-2z" />
<glyph unicode="&#x105;" horiz-adv-x="1034" d="M106 268q0 305 431 305h256v134q0 127 -62 188t-209 61q-158 0 -329 -34l-17 84q184 38 367 38q180 0 266 -74t86 -259v-711q-78 -39 -131 -111t-53 -135q0 -53 29 -82.5t85 -29.5q14 0 27.5 1.5t25.5 5t21 6t19.5 8t15.5 8t15 9t12 7.5l8 -33q-76 -60 -174 -60 q-65 0 -111.5 34.5t-46.5 105.5q0 67 48.5 137t129.5 129h-22v102h-5q-84 -64 -163 -93t-181 -29q-155 0 -246.5 76.5t-91.5 211.5zM209 276q0 -97 70.5 -156t201.5 -59q181 0 312 111v334h-250q-95 0 -161 -16t-103 -47.5t-53.5 -71.5t-16.5 -95z" />
<glyph unicode="&#x106;" horiz-adv-x="1269" d="M137 707q0 123 14.5 221.5t53 191.5t101.5 155.5t164.5 100t236.5 37.5q232 0 460 -67l-24 -93q-148 36 -241 49t-187 13q-81 0 -147.5 -17.5t-114 -47.5t-84 -75t-58.5 -95.5t-36 -113.5t-19.5 -125t-5.5 -134q0 -109 11 -196t41.5 -171t81 -140t134.5 -90t197 -34 q95 0 188 12.5t240 48.5l24 -92q-231 -65 -460 -65q-135 0 -236.5 38t-164.5 102t-101.5 159.5t-53 197.5t-14.5 230zM711 1477l133 245h86l-158 -245h-61z" />
<glyph unicode="&#x107;" horiz-adv-x="983" d="M117 512q0 120 26 214.5t81 167t148.5 111.5t221.5 39q167 0 338 -43l-21 -86q-158 41 -317 41q-80 0 -143 -23t-105 -62.5t-69.5 -96t-39.5 -121.5t-12 -141q0 -96 20 -174t62 -140.5t115 -97t172 -34.5q163 0 317 40l21 -83q-171 -43 -338 -43q-477 0 -477 532z M510 1147l133 246h86l-158 -246h-61z" />
<glyph unicode="&#x108;" horiz-adv-x="1269" d="M137 707q0 123 14.5 221.5t53 191.5t101.5 155.5t164.5 100t236.5 37.5q232 0 460 -67l-24 -93q-148 36 -241 49t-187 13q-81 0 -147.5 -17.5t-114 -47.5t-84 -75t-58.5 -95.5t-36 -113.5t-19.5 -125t-5.5 -134q0 -109 11 -196t41.5 -171t81 -140t134.5 -90t197 -34 q95 0 188 12.5t240 48.5l24 -92q-231 -65 -460 -65q-135 0 -236.5 38t-164.5 102t-101.5 159.5t-53 197.5t-14.5 230zM467 1495l217 246h68l217 -246h-62l-190 195l-189 -195h-61z" />
<glyph unicode="&#x109;" horiz-adv-x="983" d="M117 512q0 120 26 214.5t81 167t148.5 111.5t221.5 39q167 0 338 -43l-21 -86q-158 41 -317 41q-80 0 -143 -23t-105 -62.5t-69.5 -96t-39.5 -121.5t-12 -141q0 -96 20 -174t62 -140.5t115 -97t172 -34.5q163 0 317 40l21 -83q-171 -43 -338 -43q-477 0 -477 532z M313 1147l217 246h68l217 -246h-61l-191 194l-188 -194h-62z" />
<glyph unicode="&#x10a;" horiz-adv-x="1269" d="M137 707q0 123 14.5 221.5t53 191.5t101.5 155.5t164.5 100t236.5 37.5q232 0 460 -67l-24 -93q-148 36 -241 49t-187 13q-81 0 -147.5 -17.5t-114 -47.5t-84 -75t-58.5 -95.5t-36 -113.5t-19.5 -125t-5.5 -134q0 -109 11 -196t41.5 -171t81 -140t134.5 -90t197 -34 q95 0 188 12.5t240 48.5l24 -92q-231 -65 -460 -65q-135 0 -236.5 38t-164.5 102t-101.5 159.5t-53 197.5t-14.5 230zM690 1526v215h92v-215h-92z" />
<glyph unicode="&#x10b;" horiz-adv-x="983" d="M117 512q0 120 26 214.5t81 167t148.5 111.5t221.5 39q167 0 338 -43l-21 -86q-158 41 -317 41q-80 0 -143 -23t-105 -62.5t-69.5 -96t-39.5 -121.5t-12 -141q0 -96 20 -174t62 -140.5t115 -97t172 -34.5q163 0 317 40l21 -83q-171 -43 -338 -43q-477 0 -477 532z M532 1178v215h93v-215h-93z" />
<glyph unicode="&#x10c;" horiz-adv-x="1269" d="M137 707q0 123 14.5 221.5t53 191.5t101.5 155.5t164.5 100t236.5 37.5q232 0 460 -67l-24 -93q-148 36 -241 49t-187 13q-81 0 -147.5 -17.5t-114 -47.5t-84 -75t-58.5 -95.5t-36 -113.5t-19.5 -125t-5.5 -134q0 -109 11 -196t41.5 -171t81 -140t134.5 -90t197 -34 q95 0 188 12.5t240 48.5l24 -92q-231 -65 -460 -65q-135 0 -236.5 38t-164.5 102t-101.5 159.5t-53 197.5t-14.5 230zM492 1722h61l188 -194l191 194h61l-217 -245h-67z" />
<glyph unicode="&#x10d;" horiz-adv-x="983" d="M117 512q0 120 26 214.5t81 167t148.5 111.5t221.5 39q167 0 338 -43l-21 -86q-158 41 -317 41q-80 0 -143 -23t-105 -62.5t-69.5 -96t-39.5 -121.5t-12 -141q0 -96 20 -174t62 -140.5t115 -97t172 -34.5q163 0 317 40l21 -83q-171 -43 -338 -43q-477 0 -477 532z M342 1393h61l189 -195l190 195h62l-217 -246h-68z" />
<glyph unicode="&#x10e;" horiz-adv-x="1331" d="M158 0v1393h475q559 0 559 -686q0 -707 -559 -707h-475zM266 96h367q446 0 446 611q0 101 -11.5 183.5t-42 159.5t-79.5 129t-128.5 83.5t-184.5 31.5h-367v-1198zM371 1722h61l189 -194l190 194h61l-217 -245h-67z" />
<glyph unicode="&#x10f;" d="M117 512q0 117 21 211t65.5 167.5t121 113.5t181.5 40q96 0 184.5 -32.5t149.5 -87.5h4v510h102v-1434h-102v102h-4q-62 -56 -151.5 -89t-186.5 -33q-105 0 -181 40t-119.5 113.5t-64 167t-20.5 211.5zM225 512q0 -94 15.5 -170t49.5 -140.5t97 -100t150 -35.5 q93 0 175.5 34.5t131.5 75.5v672q-50 40 -132 74t-175 34q-87 0 -150 -35.5t-97 -99t-49.5 -139.5t-15.5 -170zM1067 1290v144h92v-144l-51 -180h-39l25 180h-27z" />
<glyph unicode="&#x110;" horiz-adv-x="1341" d="M55 674v65h113v654h475q559 0 559 -686q0 -707 -559 -707h-475v674h-113zM276 96h367q447 0 447 611q0 101 -11.5 183.5t-42.5 159.5t-80 129t-128.5 83.5t-184.5 31.5h-367v-555h267v-65h-267v-578z" />
<glyph unicode="&#x111;" d="M117 512q0 117 21 211t65.5 167.5t121 113.5t181.5 40q96 0 184.5 -32.5t149.5 -87.5h4v252h-236v65h236v193h102v-193h144v-65h-144v-1176h-102v102h-4q-62 -56 -151.5 -89t-186.5 -33q-105 0 -181 40t-119.5 113.5t-64 167t-20.5 211.5zM225 512q0 -94 15.5 -170 t49.5 -140.5t97 -100t150 -35.5q93 0 175.5 34.5t131.5 75.5v672q-50 40 -132 74t-175 34q-87 0 -150 -35.5t-97 -99t-49.5 -139.5t-15.5 -170z" />
<glyph unicode="&#x112;" horiz-adv-x="1146" d="M158 0v1393h839v-99h-731v-522h639v-96h-639v-580h742v-96h-850zM287 1591v68h604v-68h-604z" />
<glyph unicode="&#x113;" d="M117 512q0 120 26 215t81.5 167t149 111t220.5 39q93 0 164 -24t113 -61t68.5 -89.5t35.5 -102t8 -105.5q0 -78 -16 -156h-740q3 -440 396 -440q187 0 319 40l14 -83q-155 -43 -348 -43q-491 0 -491 532zM227 575h641q17 72 11 134q-7 112 -76.5 183t-214.5 71 q-335 0 -361 -388zM276 1243v68h605v-68h-605z" />
<glyph unicode="&#x114;" horiz-adv-x="1146" d="M158 0v1393h839v-99h-731v-522h639v-96h-639v-580h742v-96h-850zM319 1772h50q8 -35 22 -66t39 -62.5t66 -50t92 -18.5q54 0 96 18.5t66.5 50t38.5 62.5t22 66h49q-19 -134 -93 -198.5t-179 -64.5q-102 0 -175 64.5t-94 198.5z" />
<glyph unicode="&#x115;" d="M117 512q0 120 26 215t81.5 167t149 111t220.5 39q93 0 164 -24t113 -61t68.5 -89.5t35.5 -102t8 -105.5q0 -78 -16 -156h-740q3 -440 396 -440q187 0 319 40l14 -83q-155 -43 -348 -43q-491 0 -491 532zM227 575h641q17 72 11 134q-7 112 -76.5 183t-214.5 71 q-335 0 -361 -388zM324 1423h49q8 -35 22 -66t39 -62t65.5 -49.5t92.5 -18.5q54 0 96 18.5t66.5 49.5t38.5 62t22 66h49q-19 -134 -93 -198t-179 -64q-102 0 -174.5 64t-93.5 198z" />
<glyph unicode="&#x116;" horiz-adv-x="1146" d="M158 0v1393h839v-99h-731v-522h639v-96h-639v-580h742v-96h-850zM545 1526v215h92v-215h-92z" />
<glyph unicode="&#x117;" d="M117 512q0 120 26 215t81.5 167t149 111t220.5 39q93 0 164 -24t113 -61t68.5 -89.5t35.5 -102t8 -105.5q0 -78 -16 -156h-740q3 -440 396 -440q187 0 319 40l14 -83q-155 -43 -348 -43q-491 0 -491 532zM227 575h641q17 72 11 134q-7 112 -76.5 183t-214.5 71 q-335 0 -361 -388zM539 1178v215h92v-215h-92z" />
<glyph unicode="&#x118;" horiz-adv-x="1146" d="M158 0v1393h839v-99h-731v-522h639v-96h-639v-580h742v-96q-67 -52 -113.5 -121t-46.5 -125q0 -53 29.5 -82.5t85.5 -29.5q20 0 37.5 2.5t33 9t24 10.5t23 12.5t17.5 10.5l8 -33q-76 -60 -174 -60q-64 0 -111 34.5t-47 101.5q0 136 174 270h-790z" />
<glyph unicode="&#x119;" d="M117 512q0 120 26 215t81.5 167t149 111t220.5 39q104 0 180.5 -27.5t119.5 -76.5t64.5 -105t26.5 -124q7 -90 -18 -205h-740q3 -440 396 -440q187 0 319 40l14 -83q-67 -49 -113 -118.5t-46 -127.5q0 -53 29 -83t85 -30q20 0 37.5 2.5t33.5 9t24 10.5t23.5 13t17.5 10 l8 -31q-75 -59 -174 -59q-64 0 -111 34t-47 101q0 50 33 117t116 133q-137 -24 -264 -24q-491 0 -491 532zM227 575h641q17 72 11 134q-7 112 -76.5 183t-214.5 71q-335 0 -361 -388z" />
<glyph unicode="&#x11a;" horiz-adv-x="1146" d="M158 0v1393h839v-99h-731v-522h639v-96h-639v-580h742v-96h-850zM336 1722h61l189 -194l190 194h62l-217 -245h-68z" />
<glyph unicode="&#x11b;" d="M117 512q0 120 26 215t81.5 167t149 111t220.5 39q93 0 164 -24t113 -61t68.5 -89.5t35.5 -102t8 -105.5q0 -78 -16 -156h-740q3 -440 396 -440q187 0 319 40l14 -83q-155 -43 -348 -43q-491 0 -491 532zM227 575h641q17 72 11 134q-7 112 -76.5 183t-214.5 71 q-335 0 -361 -388zM344 1393h62l188 -195l190 195h62l-217 -246h-68z" />
<glyph unicode="&#x11c;" horiz-adv-x="1310" d="M137 707q0 123 14.5 221.5t53 191.5t101.5 155.5t164.5 100t236.5 37.5q219 0 444 -67l-25 -93q-149 37 -234.5 49.5t-176.5 12.5q-81 0 -147.5 -17.5t-114 -47.5t-84 -75t-58.5 -95.5t-36 -113.5t-19.5 -125t-5.5 -134q0 -109 11 -196t41.5 -171t81 -140t134.5 -90 t197 -34q178 0 329 100v412h-317v98h424v-582q-67 -37 -118.5 -60t-140 -43.5t-185.5 -20.5q-135 0 -236.5 38t-164.5 102t-101.5 159.5t-53 197.5t-14.5 230zM461 1495l217 246h67l218 -246h-62l-190 195l-189 -195h-61z" />
<glyph unicode="&#x11d;" horiz-adv-x="1136" d="M82 -164q0 141 194 246v4q-43 20 -61 56t-12 81q5 49 35 98t81 85v4q-81 40 -127.5 112.5t-46.5 173.5q0 162 105 255t293 93q59 0 133 -20h342v-68h-232q144 -85 144 -260q0 -160 -108.5 -247t-278.5 -87q-95 0 -166 29q-38 -35 -58 -74t-21.5 -76t20 -63t65.5 -28 l387 -23q285 -16 285 -215q0 -162 -143 -252t-431 -90q-399 0 -399 266zM168 -150q0 -96 81.5 -152t260.5 -56q125 0 221.5 27.5t155.5 86t59 140.5q0 137 -211 147l-399 20q-85 -52 -126.5 -98.5t-41.5 -114.5zM244 696q0 -122 80 -192t219 -70q133 0 212 71.5t79 190.5 q0 123 -79.5 200t-211.5 77q-147 0 -223 -75.5t-76 -201.5zM307 1147l217 246h68l217 -246h-61l-191 194l-188 -194h-62z" />
<glyph unicode="&#x11e;" horiz-adv-x="1310" d="M137 707q0 123 14.5 221.5t53 191.5t101.5 155.5t164.5 100t236.5 37.5q219 0 444 -67l-25 -93q-149 37 -234.5 49.5t-176.5 12.5q-81 0 -147.5 -17.5t-114 -47.5t-84 -75t-58.5 -95.5t-36 -113.5t-19.5 -125t-5.5 -134q0 -109 11 -196t41.5 -171t81 -140t134.5 -90 t197 -34q178 0 329 100v412h-317v98h424v-582q-67 -37 -118.5 -60t-140 -43.5t-185.5 -20.5q-135 0 -236.5 38t-164.5 102t-101.5 159.5t-53 197.5t-14.5 230zM438 1772h49q8 -35 22.5 -66t39.5 -62.5t66 -50t92 -18.5q54 0 96 18.5t66.5 50t38.5 62.5t22 66h49 q-19 -134 -93 -198.5t-179 -64.5q-102 0 -175 64.5t-94 198.5z" />
<glyph unicode="&#x11f;" horiz-adv-x="1136" d="M82 -164q0 141 194 246v4q-43 20 -61 56t-12 81q5 49 35 98t81 85v4q-81 40 -127.5 112.5t-46.5 173.5q0 162 105 255t293 93q59 0 133 -20h342v-68h-232q144 -85 144 -260q0 -160 -108.5 -247t-278.5 -87q-95 0 -166 29q-38 -35 -58 -74t-21.5 -76t20 -63t65.5 -28 l387 -23q285 -16 285 -215q0 -162 -143 -252t-431 -90q-399 0 -399 266zM168 -150q0 -96 81.5 -152t260.5 -56q125 0 221.5 27.5t155.5 86t59 140.5q0 137 -211 147l-399 20q-85 -52 -126.5 -98.5t-41.5 -114.5zM244 696q0 -122 80 -192t219 -70q133 0 212 71.5t79 190.5 q0 123 -79.5 200t-211.5 77q-147 0 -223 -75.5t-76 -201.5zM270 1423h49q8 -35 22.5 -66t39.5 -62t65.5 -49.5t92.5 -18.5q54 0 96 18.5t66.5 49.5t38.5 62t22 66h49q-19 -134 -93 -198t-179 -64q-102 0 -175 64t-94 198z" />
<glyph unicode="&#x120;" horiz-adv-x="1310" d="M137 707q0 123 14.5 221.5t53 191.5t101.5 155.5t164.5 100t236.5 37.5q219 0 444 -67l-25 -93q-149 37 -234.5 49.5t-176.5 12.5q-81 0 -147.5 -17.5t-114 -47.5t-84 -75t-58.5 -95.5t-36 -113.5t-19.5 -125t-5.5 -134q0 -109 11 -196t41.5 -171t81 -140t134.5 -90 t197 -34q178 0 329 100v412h-317v98h424v-582q-67 -37 -118.5 -60t-140 -43.5t-185.5 -20.5q-135 0 -236.5 38t-164.5 102t-101.5 159.5t-53 197.5t-14.5 230zM647 1526v215h92v-215h-92z" />
<glyph unicode="&#x121;" horiz-adv-x="1136" d="M82 -164q0 141 194 246v4q-43 20 -61 56t-12 81q5 49 35 98t81 85v4q-81 40 -127.5 112.5t-46.5 173.5q0 162 105 255t293 93q59 0 133 -20h342v-68h-232q144 -85 144 -260q0 -160 -108.5 -247t-278.5 -87q-95 0 -166 29q-38 -35 -58 -74t-21.5 -76t20 -63t65.5 -28 l387 -23q285 -16 285 -215q0 -162 -143 -252t-431 -90q-399 0 -399 266zM168 -150q0 -96 81.5 -152t260.5 -56q125 0 221.5 27.5t155.5 86t59 140.5q0 137 -211 147l-399 20q-85 -52 -126.5 -98.5t-41.5 -114.5zM244 696q0 -122 80 -192t219 -70q133 0 212 71.5t79 190.5 q0 123 -79.5 200t-211.5 77q-147 0 -223 -75.5t-76 -201.5zM494 1178v215h92v-215h-92z" />
<glyph unicode="&#x122;" horiz-adv-x="1310" d="M137 707q0 123 14.5 221.5t53 191.5t101.5 155.5t164.5 100t236.5 37.5q219 0 444 -67l-25 -93q-149 37 -234.5 49.5t-176.5 12.5q-81 0 -147.5 -17.5t-114 -47.5t-84 -75t-58.5 -95.5t-36 -113.5t-19.5 -125t-5.5 -134q0 -109 11 -196t41.5 -171t81 -140t134.5 -90 t197 -34q178 0 329 100v412h-317v98h424v-582q-67 -37 -118.5 -60t-140 -43.5t-185.5 -20.5q-135 0 -236.5 38t-164.5 102t-101.5 159.5t-53 197.5t-14.5 230zM666 -82h92v-143l-51 -181h-39l24 181h-26v143z" />
<glyph unicode="&#x123;" horiz-adv-x="1136" d="M82 -164q0 141 194 246v4q-43 20 -61 56t-12 81q5 49 35 98t81 85v4q-81 40 -127.5 112.5t-46.5 173.5q0 162 105 255t293 93q59 0 133 -20h342v-68h-232q144 -85 144 -260q0 -160 -108.5 -247t-278.5 -87q-95 0 -166 29q-38 -35 -58 -74t-21.5 -76t20 -63t65.5 -28 l387 -23q285 -16 285 -215q0 -162 -143 -252t-431 -90q-399 0 -399 266zM168 -150q0 -96 81.5 -152t260.5 -56q125 0 221.5 27.5t155.5 86t59 140.5q0 137 -211 147l-399 20q-85 -52 -126.5 -98.5t-41.5 -114.5zM244 696q0 -122 80 -192t219 -70q133 0 212 71.5t79 190.5 q0 123 -79.5 200t-211.5 77q-147 0 -223 -75.5t-76 -201.5zM496 1167v144l51 178h39l-25 -178h27v-144h-92z" />
<glyph unicode="&#x124;" horiz-adv-x="1310" d="M158 0v1393h108v-621h778v621h107v-1393h-107v676h-778v-676h-108zM403 1495l218 246h67l217 -246h-61l-191 195l-188 -195h-62z" />
<glyph unicode="&#x125;" d="M-61 1536l217 246h67l217 -246h-61l-191 195l-188 -195h-61zM137 0v1434h103v-564h4q190 174 395 174q307 0 307 -333v-711h-102v690q0 266 -246 266q-169 0 -358 -155v-801h-103z" />
<glyph unicode="&#x126;" horiz-adv-x="1310" d="M14 1094v65h144v234h108v-234h778v234h107v-234h143v-65h-143v-1094h-107v676h-778v-676h-108v1094h-144zM266 772h778v322h-778v-322z" />
<glyph unicode="&#x127;" d="M-6 1176v65h143v193h103v-193h235v-65h-235v-306h4q190 174 395 174q307 0 307 -333v-711h-102v690q0 266 -246 266q-169 0 -358 -155v-801h-103v1176h-143z" />
<glyph unicode="&#x128;" horiz-adv-x="423" d="M-111 1567q65 85 112.5 118t102.5 33q41 0 93 -32t99 -63.5t75 -31.5q71 0 133 105l33 -31q-69 -139 -166 -139q-39 0 -132.5 61.5t-132.5 61.5q-41 0 -74 -19t-108 -94zM156 0v1393h108v-1393h-108z" />
<glyph unicode="&#x129;" horiz-adv-x="378" d="M-133 1219q65 85 112.5 118t102.5 33q41 0 92.5 -32t98.5 -63.5t75 -31.5q71 0 133 105l33 -31q-70 -139 -166 -139q-39 0 -132 61t-132 61q-42 0 -74.5 -18.5t-107.5 -93.5zM137 0v1024h103v-1024h-103z" />
<glyph unicode="&#x12a;" horiz-adv-x="423" d="M-90 1591v68h604v-68h-604zM150 0v1393h108v-1393h-108z" />
<glyph unicode="&#x12b;" horiz-adv-x="378" d="M-113 1243v68h605v-68h-605zM137 0v1024h103v-1024h-103z" />
<glyph unicode="&#x12c;" horiz-adv-x="423" d="M-59 1772h49q8 -35 22 -66t39 -62.5t66 -50t92 -18.5q54 0 96 18.5t66.5 50t38.5 62.5t22 66h49q-19 -134 -93 -198.5t-179 -64.5q-102 0 -174.5 64.5t-93.5 198.5zM162 0v1393h108v-1393h-108z" />
<glyph unicode="&#x12d;" horiz-adv-x="378" d="M-82 1423h49q8 -35 22 -66t39 -62t65.5 -49.5t92.5 -18.5q54 0 96 18.5t67 49.5t39 62t22 66h49q-19 -134 -93 -198t-180 -64q-102 0 -174.5 64t-93.5 198zM137 0v1024h103v-1024h-103z" />
<glyph unicode="&#x12e;" horiz-adv-x="423" d="M10 -270q0 72 49.5 143.5t126.5 126.5h-28v1393h108v-1393q-81 -44 -132.5 -114t-51.5 -132q0 -53 30.5 -82.5t86.5 -29.5q19 0 36 2.5t33.5 9t24.5 10t23.5 13t17.5 10.5l8 -33q-76 -60 -174 -60q-64 0 -111 34.5t-47 101.5z" />
<glyph unicode="&#x12f;" horiz-adv-x="378" d="M-8 -270q0 136 174 270q0 2 -29 96v928h103v-1024q-72 -39 -123 -112t-51 -134q0 -53 29 -82.5t85 -29.5q20 0 37.5 2.5t33 9t24 10.5t23 12.5t17.5 10.5l9 -33q-76 -60 -174 -60q-62 0 -110 35t-48 101zM137 1202v232h103v-232h-103z" />
<glyph unicode="&#x130;" horiz-adv-x="423" d="M158 0v1393h108v-1393h-108zM166 1526v215h92v-215h-92z" />
<glyph unicode="&#x131;" horiz-adv-x="378" d="M137 0v1024h103v-1024h-103z" />
<glyph unicode="&#x132;" horiz-adv-x="1075" d="M158 0v1393h108v-1393h-108zM469 -8l10 92q64 -10 125 -10q113 0 159 61.5t46 198.5v1059h106v-1065q0 -192 -70.5 -270t-215.5 -78q-87 0 -160 12z" />
<glyph unicode="&#x133;" horiz-adv-x="745" d="M137 0v1024h103v-1024h-103zM137 1161v232h103v-232h-103zM188 -418l11 82q64 -10 116 -10q108 0 149.5 41.5t41.5 146.5v1182h102v-1196q0 -140 -62.5 -199t-209.5 -59q-72 0 -148 12zM506 1161v232h102v-232h-102z" />
<glyph unicode="&#x134;" horiz-adv-x="649" d="M43 -8l10 92q66 -10 125 -10q113 0 159 61.5t46 198.5v1059h109v-1065q0 -192 -71 -270t-216 -78q-85 0 -162 12zM186 1495l217 246h68l217 -246h-61l-191 195l-188 -195h-62z" />
<glyph unicode="&#x135;" horiz-adv-x="460" d="M-98 -418l12 82q61 -10 117 -10q108 0 148 41.5t40 146.5v1182h103v-1196q0 -141 -62 -199.5t-209 -58.5q-73 0 -149 12zM20 1147l218 246h67l217 -246h-61l-191 194l-188 -194h-62z" />
<glyph unicode="&#x136;" horiz-adv-x="1267" d="M158 0v1393h108v-811l752 811h129l-516 -570l530 -823h-135l-475 737l-285 -303v-434h-108zM594 -68h92v-143l-51 -180h-39l25 180h-27v143z" />
<glyph unicode="&#x137;" d="M137 0v1434h103v-889l600 479h127l-404 -338l424 -686h-121l-377 629l-249 -197v-432h-103zM479 -82h92v-143l-51 -181h-39l25 181h-27v143z" />
<glyph unicode="&#x138;" d="M137 0v1024h103v-479l600 479h127l-404 -338l424 -686h-121l-377 629l-249 -197v-432h-103z" />
<glyph unicode="&#x139;" horiz-adv-x="1105" d="M158 0v1393h108v-1297h721v-96h-829zM182 1477l133 245h86l-157 -245h-62z" />
<glyph unicode="&#x13a;" horiz-adv-x="378" d="M137 0v1434h103v-1434h-103zM162 1536l133 246h86l-158 -246h-61z" />
<glyph unicode="&#x13b;" horiz-adv-x="1105" d="M158 0v1393h108v-1297h721v-96h-829zM541 -66h92v-143l-51 -180h-39l24 180h-26v143z" />
<glyph unicode="&#x13c;" horiz-adv-x="378" d="M137 0v1434h103v-1434h-103zM143 -82h93v-143l-52 -181h-39l25 181h-27v143z" />
<glyph unicode="&#x13d;" horiz-adv-x="1105" d="M158 0v1393h108v-1297h721v-96h-829zM512 1249v144h92v-144l-51 -180h-39l25 180h-27z" />
<glyph unicode="&#x13e;" horiz-adv-x="413" d="M137 0v1434h103v-1434h-103zM346 1290v144h92v-144l-51 -180h-39l25 180h-27z" />
<glyph unicode="&#x13f;" horiz-adv-x="1105" d="M158 0v1393h108v-1297h721v-96h-829zM561 666v225h92v-225h-92z" />
<glyph unicode="&#x140;" horiz-adv-x="481" d="M137 0v1434h103v-1434h-103zM356 625v225h93v-225h-93z" />
<glyph unicode="&#x141;" horiz-adv-x="1126" d="M35 688v68l143 32v605h109v-578l235 57v-65l-235 -59v-652h721v-96h-830v723z" />
<glyph unicode="&#x142;" horiz-adv-x="460" d="M-41 633v65l219 54v682h103v-656l221 53v-65l-221 -55v-711h-103v686z" />
<glyph unicode="&#x143;" horiz-adv-x="1331" d="M158 0v1393h108l797 -1192h4v1192h104v-1393h-106l-797 1182h-4v-1182h-106zM647 1477l133 245h86l-157 -245h-62z" />
<glyph unicode="&#x144;" d="M137 0v1024h103v-154h4q190 174 395 174q307 0 307 -333v-711h-102v690q0 266 -246 266q-169 0 -358 -155v-801h-103zM506 1147l133 246h86l-158 -246h-61z" />
<glyph unicode="&#x145;" horiz-adv-x="1331" d="M158 0v1393h108l797 -1192h4v1192h104v-1393h-106l-797 1182h-4v-1182h-106zM623 -82h92v-143l-51 -181h-39l24 181h-26v143z" />
<glyph unicode="&#x146;" d="M137 0v1024h103v-154h4q190 174 395 174q307 0 307 -333v-711h-102v690q0 266 -246 266q-169 0 -358 -155v-801h-103zM492 1147v143l51 178h39l-25 -178h27v-143h-92z" />
<glyph unicode="&#x147;" horiz-adv-x="1331" d="M158 0v1393h108l797 -1192h4v1192h104v-1393h-106l-797 1182h-4v-1182h-106zM414 1722h61l189 -194l190 194h61l-217 -245h-67z" />
<glyph unicode="&#x148;" d="M137 0v1024h103v-154h4q190 174 395 174q307 0 307 -333v-711h-102v690q0 266 -246 266q-169 0 -358 -155v-801h-103zM291 1393h61l189 -195l190 195h62l-218 -246h-67z" />
<glyph unicode="&#x149;" d="M137 0v1024h103v-154h4q190 174 395 174q307 0 307 -333v-711h-102v690q0 266 -246 266q-169 0 -358 -155v-801h-103zM152 1290v144h92v-144l-51 -178h-39l24 178h-26z" />
<glyph unicode="&#x14a;" horiz-adv-x="1331" d="M158 0v1393h108l797 -1192h4v1192h104v-1567q0 -141 -61.5 -199.5t-208.5 -58.5q-47 0 -149 12l12 82q82 -10 117 -10q108 0 148 41.5t40 146.5v160l-801 1182h-4v-1182h-106z" />
<glyph unicode="&#x14b;" d="M137 0v1024h103v-154h4q190 174 395 174q307 0 307 -333v-883q0 -141 -61.5 -199.5t-208.5 -58.5q-74 0 -150 12l13 82q61 -10 116 -10q108 0 148.5 41.5t40.5 146.5v848q0 266 -246 266q-169 0 -358 -155v-801h-103z" />
<glyph unicode="&#x14c;" horiz-adv-x="1413" d="M137 707q0 123 14.5 221.5t53 191.5t101.5 155.5t164.5 100t236.5 37.5t236.5 -37.5t163.5 -100t100.5 -155.5t52.5 -191.5t14 -221.5q0 -125 -14 -226.5t-52.5 -197.5t-100.5 -160.5t-163.5 -103.5t-236.5 -39q-97 0 -177 20t-138.5 55.5t-103 88t-73 113t-46.5 136 t-25 151t-7 163.5zM250 707q0 -105 9.5 -189t39 -170.5t78.5 -144.5t133 -94.5t197 -36.5q82 0 148.5 19t113 51t81.5 80.5t55.5 101t33.5 119.5t17.5 128.5t4.5 135.5q0 73 -4.5 134t-17 126t-33.5 115.5t-56 96.5t-82 76t-113 48t-148 18t-148.5 -18t-113.5 -48t-82 -76 t-56.5 -96.5t-34.5 -115.5t-17.5 -126t-4.5 -134zM403 1591v68h605v-68h-605z" />
<glyph unicode="&#x14d;" horiz-adv-x="1126" d="M117 512q0 120 24.5 215t76 167t139 111t206.5 39t206.5 -39t139 -111t75.5 -167t24 -215q0 -121 -24 -215.5t-75.5 -167t-139 -111t-206.5 -38.5t-206.5 38.5t-139 110.5t-76 167t-24.5 216zM225 512q0 -96 17 -172.5t54 -140t105 -98.5t162 -35t162 35t105 98.5t54 140 t17 172.5q0 95 -17 171.5t-54 139.5t-105 98t-162 35t-162 -35t-105 -98t-54 -139.5t-17 -171.5zM260 1243v68h604v-68h-604z" />
<glyph unicode="&#x14e;" horiz-adv-x="1413" d="M137 707q0 123 14.5 221.5t53 191.5t101.5 155.5t164.5 100t236.5 37.5t236.5 -37.5t163.5 -100t100.5 -155.5t52.5 -191.5t14 -221.5q0 -125 -14 -226.5t-52.5 -197.5t-100.5 -160.5t-163.5 -103.5t-236.5 -39q-97 0 -177 20t-138.5 55.5t-103 88t-73 113t-46.5 136 t-25 151t-7 163.5zM250 707q0 -105 9.5 -189t39 -170.5t78.5 -144.5t133 -94.5t197 -36.5q82 0 148.5 19t113 51t81.5 80.5t55.5 101t33.5 119.5t17.5 128.5t4.5 135.5q0 73 -4.5 134t-17 126t-33.5 115.5t-56 96.5t-82 76t-113 48t-148 18t-148.5 -18t-113.5 -48t-82 -76 t-56.5 -96.5t-34.5 -115.5t-17.5 -126t-4.5 -134zM436 1772h49q8 -35 22.5 -66t39.5 -62.5t66 -50t92 -18.5q54 0 96 18.5t66.5 50t38.5 62.5t22 66h49q-19 -134 -93 -198.5t-179 -64.5q-102 0 -175 64.5t-94 198.5z" />
<glyph unicode="&#x14f;" horiz-adv-x="1126" d="M117 512q0 120 24.5 215t76 167t139 111t206.5 39t206.5 -39t139 -111t75.5 -167t24 -215q0 -121 -24 -215.5t-75.5 -167t-139 -111t-206.5 -38.5t-206.5 38.5t-139 110.5t-76 167t-24.5 216zM225 512q0 -96 17 -172.5t54 -140t105 -98.5t162 -35t162 35t105 98.5t54 140 t17 172.5q0 95 -17 171.5t-54 139.5t-105 98t-162 35t-162 -35t-105 -98t-54 -139.5t-17 -171.5zM293 1423h49q8 -35 22 -66t39 -62t65.5 -49.5t92.5 -18.5q54 0 96 18.5t66.5 49.5t38.5 62t22 66h50q-19 -134 -93 -198t-180 -64q-102 0 -174.5 64t-93.5 198z" />
<glyph unicode="&#x150;" horiz-adv-x="1413" d="M137 707q0 123 14.5 221.5t53 191.5t101.5 155.5t164.5 100t236.5 37.5t236.5 -37.5t163.5 -100t100.5 -155.5t52.5 -191.5t14 -221.5q0 -125 -14 -226.5t-52.5 -197.5t-100.5 -160.5t-163.5 -103.5t-236.5 -39q-97 0 -177 20t-138.5 55.5t-103 88t-73 113t-46.5 136 t-25 151t-7 163.5zM250 707q0 -105 9.5 -189t39 -170.5t78.5 -144.5t133 -94.5t197 -36.5q82 0 148.5 19t113 51t81.5 80.5t55.5 101t33.5 119.5t17.5 128.5t4.5 135.5q0 73 -4.5 134t-17 126t-33.5 115.5t-56 96.5t-82 76t-113 48t-148 18t-148.5 -18t-113.5 -48t-82 -76 t-56.5 -96.5t-34.5 -115.5t-17.5 -126t-4.5 -134zM553 1495l133 246h72l-144 -246h-61zM772 1495l133 246h72l-143 -246h-62z" />
<glyph unicode="&#x151;" horiz-adv-x="1126" d="M117 512q0 120 24.5 215t76 167t139 111t206.5 39t206.5 -39t139 -111t75.5 -167t24 -215q0 -121 -24 -215.5t-75.5 -167t-139 -111t-206.5 -38.5t-206.5 38.5t-139 110.5t-76 167t-24.5 216zM225 512q0 -96 17 -172.5t54 -140t105 -98.5t162 -35t162 35t105 98.5t54 140 t17 172.5q0 95 -17 171.5t-54 139.5t-105 98t-162 35t-162 -35t-105 -98t-54 -139.5t-17 -171.5zM406 1147l133 246h71l-143 -246h-61zM625 1147l133 246h71l-143 -246h-61z" />
<glyph unicode="&#x152;" horiz-adv-x="2148" d="M137 707q0 123 14.5 221.5t53 191.5t101.5 155.5t164.5 100t236.5 37.5q102 0 181 -25.5t132 -73t86 -106.5t53 -135h2v320h838v-99h-731v-522h639v-96h-639v-580h741v-96h-848v330h-2q-14 -70 -43.5 -127t-63 -92.5t-78 -61.5t-80 -39t-78 -20.5t-64 -8.5t-45.5 -1 q-99 0 -180.5 21t-140 57t-103 90.5t-72 115t-44.5 136t-23.5 149t-6.5 158.5zM250 707q0 -105 9.5 -189t39 -170.5t78.5 -144.5t133 -94.5t197 -36.5q82 0 148 19t113 51.5t82 81.5t56 102.5t33.5 122.5t17 133.5t4.5 142.5q0 71 -5 131t-18 122.5t-35 112t-57 93.5 t-81.5 73.5t-112 46.5t-145.5 17q-82 0 -148.5 -18t-113.5 -48t-82 -76t-56.5 -96.5t-34.5 -115.5t-17.5 -126t-4.5 -134z" />
<glyph unicode="&#x153;" horiz-adv-x="1869" d="M117 512q0 120 24.5 215t76 167t139 111t206.5 39q317 0 393 -313q79 313 422 313q94 0 166.5 -24t114.5 -61t68.5 -89t35.5 -100t9 -102q0 -65 -21 -162h-739q1 -100 21.5 -177.5t65 -138t121.5 -92.5t185 -32q189 0 321 40l15 -83q-158 -43 -348 -43q-358 0 -437 311 q-75 -311 -393 -311q-119 0 -206.5 38.5t-139 110.5t-76 167t-24.5 216zM225 512q0 -96 17 -172.5t54 -140t105 -98.5t162 -35q92 0 159.5 34t105.5 96t55.5 140t17.5 176q0 95 -17 171.5t-54 139.5t-105 98t-162 35t-162 -35t-105 -98t-54 -139.5t-17 -171.5zM1012 575h641 q14 61 14 107q0 56 -16 104.5t-49 89t-92 64t-138 23.5q-334 0 -360 -388z" />
<glyph unicode="&#x154;" horiz-adv-x="1259" d="M158 0v1393h553q127 0 219 -55.5t136 -145t44 -201.5q0 -158 -89.5 -264t-250.5 -123l385 -604h-127l-371 588h-391v-588h-108zM266 686h420q143 0 229 81t86 224q0 135 -80.5 219t-220.5 84h-434v-608zM551 1477l133 245h86l-158 -245h-61z" />
<glyph unicode="&#x155;" horiz-adv-x="757" d="M137 0v1024h103v-164h4q204 184 415 184v-98q-113 0 -226.5 -48t-192.5 -107v-791h-103zM326 1147l133 246h86l-158 -246h-61z" />
<glyph unicode="&#x156;" horiz-adv-x="1259" d="M158 0v1393h553q127 0 219 -55.5t136 -145t44 -201.5q0 -158 -89.5 -264t-250.5 -123l385 -604h-127l-371 588h-391v-588h-108zM266 686h420q143 0 229 81t86 224q0 135 -80.5 219t-220.5 84h-434v-608zM608 -70h92v-143l-51 -180h-39l25 180h-27v143z" />
<glyph unicode="&#x157;" horiz-adv-x="757" d="M137 0v1024h103v-164h4q204 184 415 184v-98q-113 0 -226.5 -48t-192.5 -107v-791h-103zM141 -82h92v-143l-51 -181h-39l25 181h-27v143z" />
<glyph unicode="&#x158;" horiz-adv-x="1259" d="M158 0v1393h553q127 0 219 -55.5t136 -145t44 -201.5q0 -158 -89.5 -264t-250.5 -123l385 -604h-127l-371 588h-391v-588h-108zM266 686h420q143 0 229 81t86 224q0 135 -80.5 219t-220.5 84h-434v-608zM344 1722h62l188 -194l190 194h62l-217 -245h-68z" />
<glyph unicode="&#x159;" horiz-adv-x="757" d="M137 0v1024h103v-164h4q204 184 415 184v-98q-113 0 -226.5 -48t-192.5 -107v-791h-103zM145 1393h62l188 -195l191 195h61l-217 -246h-68z" />
<glyph unicode="&#x15a;" horiz-adv-x="1228" d="M137 45l21 92q245 -61 456 -61q95 0 168 25t114 67.5t61 90.5t20 101q0 34 -9 64t-21.5 53t-36.5 45t-42.5 36.5t-52 30t-53 23.5t-57 19t-52 15t-49.5 13q-86 21 -160 53t-141 80t-106 118t-39 155q0 91 35 159.5t97.5 109t143.5 60t180 19.5q223 0 451 -67l-25 -93 q-148 36 -240.5 49t-185.5 13q-96 0 -165.5 -20.5t-107 -57.5t-54.5 -79.5t-17 -94.5q0 -49 19 -91t55 -73t73 -54.5t88.5 -42t85.5 -29t79 -21.5q420 -93 420 -383q0 -187 -131 -288t-345 -101q-246 0 -477 65zM596 1477l133 245h86l-158 -245h-61z" />
<glyph unicode="&#x15b;" horiz-adv-x="983" d="M106 23l21 83q168 -43 385 -43q59 0 105 12t73 32.5t45 42t25 47.5t9.5 41t2.5 30q0 35 -10.5 61.5t-39.5 54.5t-87 50.5t-146 40.5q-67 13 -116.5 27.5t-98 38.5t-79 55t-49.5 77t-19 105q0 127 90.5 196.5t263.5 69.5q218 0 389 -43l-20 -86q-177 46 -365 46 q-69 0 -120.5 -16t-76.5 -37t-39.5 -50t-17 -45.5t-2.5 -32.5q0 -35 10 -62t37.5 -55.5t84 -51.5t141.5 -40q94 -20 158.5 -42.5t115 -56.5t74.5 -83t24 -115q0 -140 -90 -217t-262 -77q-245 0 -416 43zM494 1147l133 246h86l-158 -246h-61z" />
<glyph unicode="&#x15c;" horiz-adv-x="1228" d="M137 45l21 92q245 -61 456 -61q95 0 168 25t114 67.5t61 90.5t20 101q0 34 -9 64t-21.5 53t-36.5 45t-42.5 36.5t-52 30t-53 23.5t-57 19t-52 15t-49.5 13q-86 21 -160 53t-141 80t-106 118t-39 155q0 91 35 159.5t97.5 109t143.5 60t180 19.5q223 0 451 -67l-25 -93 q-148 36 -240.5 49t-185.5 13q-96 0 -165.5 -20.5t-107 -57.5t-54.5 -79.5t-17 -94.5q0 -49 19 -91t55 -73t73 -54.5t88.5 -42t85.5 -29t79 -21.5q420 -93 420 -383q0 -187 -131 -288t-345 -101q-246 0 -477 65zM383 1495l217 246h68l217 -246h-62l-190 195l-189 -195h-61z " />
<glyph unicode="&#x15d;" horiz-adv-x="983" d="M106 23l21 83q168 -43 385 -43q59 0 105 12t73 32.5t45 42t25 47.5t9.5 41t2.5 30q0 35 -10.5 61.5t-39.5 54.5t-87 50.5t-146 40.5q-67 13 -116.5 27.5t-98 38.5t-79 55t-49.5 77t-19 105q0 127 90.5 196.5t263.5 69.5q218 0 389 -43l-20 -86q-177 46 -365 46 q-69 0 -120.5 -16t-76.5 -37t-39.5 -50t-17 -45.5t-2.5 -32.5q0 -35 10 -62t37.5 -55.5t84 -51.5t141.5 -40q94 -20 158.5 -42.5t115 -56.5t74.5 -83t24 -115q0 -140 -90 -217t-262 -77q-245 0 -416 43zM268 1147l217 246h68l217 -246h-61l-191 194l-188 -194h-62z" />
<glyph unicode="&#x15e;" horiz-adv-x="1228" d="M137 45l21 92q245 -61 456 -61q95 0 168 25t114 67.5t61 90.5t20 101q0 34 -9 64t-21.5 53t-36.5 45t-42.5 36.5t-52 30t-53 23.5t-57 19t-52 15t-49.5 13q-86 21 -160 53t-141 80t-106 118t-39 155q0 91 35 159.5t97.5 109t143.5 60t180 19.5q223 0 451 -67l-25 -93 q-148 36 -240.5 49t-185.5 13q-96 0 -165.5 -20.5t-107 -57.5t-54.5 -79.5t-17 -94.5q0 -49 19 -91t55 -73t73 -54.5t88.5 -42t85.5 -29t79 -21.5q420 -93 420 -383q0 -183 -126.5 -283.5t-334.5 -105.5v-99q73 -3 122.5 -37.5t49.5 -107.5q0 -71 -51 -113.5t-140 -42.5 q-56 0 -139 25l10 41q69 -21 117 -21q39 0 67.5 12t42 31.5t19.5 37.5t6 36q0 41 -33 74.5t-116 33.5v130q-249 7 -447 65z" />
<glyph unicode="&#x15f;" horiz-adv-x="983" d="M106 23l21 83q168 -43 385 -43q59 0 105 12t73 32.5t45 42t25 47.5t9.5 41t2.5 30q0 35 -10.5 61.5t-39.5 54.5t-87 50.5t-146 40.5q-67 13 -116.5 27.5t-98 38.5t-79 55t-49.5 77t-19 105q0 127 90.5 196.5t263.5 69.5q218 0 389 -43l-20 -86q-177 46 -365 46 q-69 0 -120.5 -16t-76.5 -37t-39.5 -50t-17 -45.5t-2.5 -32.5q0 -35 10 -62t37.5 -55.5t84 -51.5t141.5 -40q94 -20 158.5 -42.5t115 -56.5t74.5 -83t24 -115q0 -140 -88.5 -216.5t-259.5 -77.5v-99q73 -3 122.5 -37.5t49.5 -107.5q0 -71 -51 -113.5t-139 -42.5 q-59 0 -139 25l8 41q69 -21 119 -21q39 0 67.5 12t42 31.5t19.5 37.5t6 36q0 41 -33.5 74.5t-116.5 33.5v130q-222 6 -375 43z" />
<glyph unicode="&#x160;" horiz-adv-x="1228" d="M137 45l21 92q245 -61 456 -61q95 0 168 25t114 67.5t61 90.5t20 101q0 34 -9 64t-21.5 53t-36.5 45t-42.5 36.5t-52 30t-53 23.5t-57 19t-52 15t-49.5 13q-86 21 -160 53t-141 80t-106 118t-39 155q0 91 35 159.5t97.5 109t143.5 60t180 19.5q223 0 451 -67l-25 -93 q-148 36 -240.5 49t-185.5 13q-96 0 -165.5 -20.5t-107 -57.5t-54.5 -79.5t-17 -94.5q0 -49 19 -91t55 -73t73 -54.5t88.5 -42t85.5 -29t79 -21.5q420 -93 420 -383q0 -187 -131 -288t-345 -101q-246 0 -477 65zM362 1722h62l188 -194l191 194h61l-217 -245h-67z" />
<glyph unicode="&#x161;" horiz-adv-x="983" d="M106 23l21 83q168 -43 385 -43q59 0 105 12t73 32.5t45 42t25 47.5t9.5 41t2.5 30q0 35 -10.5 61.5t-39.5 54.5t-87 50.5t-146 40.5q-67 13 -116.5 27.5t-98 38.5t-79 55t-49.5 77t-19 105q0 127 90.5 196.5t263.5 69.5q218 0 389 -43l-20 -86q-177 46 -365 46 q-69 0 -120.5 -16t-76.5 -37t-39.5 -50t-17 -45.5t-2.5 -32.5q0 -35 10 -62t37.5 -55.5t84 -51.5t141.5 -40q94 -20 158.5 -42.5t115 -56.5t74.5 -83t24 -115q0 -140 -90 -217t-262 -77q-245 0 -416 43zM258 1393h61l189 -195l190 195h62l-217 -246h-68z" />
<glyph unicode="&#x162;" horiz-adv-x="1146" d="M117 1294v99h911v-99h-401v-1294h-107v1294h-403zM526 -82h92v-143l-51 -181h-39l25 181h-27v143z" />
<glyph unicode="&#x163;" horiz-adv-x="768" d="M51 946v70l168 8l14 287h89v-287h317v-78h-317v-629q0 -132 42.5 -193t157.5 -61q47 0 117 11l10 -82q-73 -12 -157 -12q-144 0 -208.5 71.5t-64.5 251.5v643h-168zM362 -82h93v-143l-52 -181h-38l24 181h-27v143z" />
<glyph unicode="&#x164;" horiz-adv-x="1146" d="M117 1294v99h911v-99h-401v-1294h-107v1294h-403zM322 1722h61l188 -194l191 194h61l-217 -245h-67z" />
<glyph unicode="&#x165;" horiz-adv-x="768" d="M51 946v70l168 8l14 287h89v-287h317v-78h-317v-629q0 -132 42.5 -193t157.5 -61q47 0 117 11l10 -82q-73 -12 -157 -12q-144 0 -208.5 71.5t-64.5 251.5v643h-168zM481 1290v144h92v-144l-51 -180h-39l25 180h-27z" />
<glyph unicode="&#x166;" horiz-adv-x="1146" d="M117 1294v99h911v-99h-401v-708h190v-66h-190v-520h-107v520h-190v66h190v708h-403z" />
<glyph unicode="&#x167;" horiz-adv-x="768" d="M51 946v70l168 8l14 287h89v-287h317v-78h-317v-352h296v-68h-296v-209q0 -132 42.5 -193t157.5 -61q47 0 117 11l10 -82q-73 -12 -157 -12q-144 0 -208.5 71.5t-64.5 251.5v223h-123v68h123v352h-168z" />
<glyph unicode="&#x168;" horiz-adv-x="1310" d="M158 492v901h108v-901q0 -43 2 -74.5t10.5 -78t23.5 -80.5t44.5 -71.5t70.5 -61t104.5 -39t142.5 -15.5q74 0 133.5 15.5t98.5 39.5t67.5 60.5t43.5 71.5t24 80.5t11 78.5t2 74v901h107v-901q0 -264 -121.5 -388t-374.5 -124t-375 124t-122 388zM332 1567 q65 85 112.5 118t102.5 33q41 0 92.5 -32t98.5 -63.5t75 -31.5q71 0 133 105l33 -31q-69 -139 -166 -139q-39 0 -132 61.5t-132 61.5q-41 0 -74 -19t-108 -94z" />
<glyph unicode="&#x169;" d="M137 311v713h103v-692q0 -266 245 -266q167 0 359 157v801h102v-1024h-102v154h-4q-190 -174 -396 -174q-307 0 -307 331zM219 1219q65 85 112.5 118t102.5 33q41 0 92.5 -32t98.5 -63.5t75 -31.5q72 0 134 105l32 -31q-70 -139 -166 -139q-39 0 -132 61t-132 61 q-42 0 -74.5 -18.5t-107.5 -93.5z" />
<glyph unicode="&#x16a;" horiz-adv-x="1310" d="M158 492v901h108v-901q0 -43 2 -74.5t10.5 -78t23.5 -80.5t44.5 -71.5t70.5 -61t104.5 -39t142.5 -15.5q74 0 133.5 15.5t98.5 39.5t67.5 60.5t43.5 71.5t24 80.5t11 78.5t2 74v901h107v-901q0 -264 -121.5 -388t-374.5 -124t-375 124t-122 388zM352 1591v68h604v-68 h-604z" />
<glyph unicode="&#x16b;" d="M137 311v713h103v-692q0 -266 245 -266q167 0 359 157v801h102v-1024h-102v154h-4q-190 -174 -396 -174q-307 0 -307 331zM240 1243v68h604v-68h-604z" />
<glyph unicode="&#x16c;" horiz-adv-x="1310" d="M158 492v901h108v-901q0 -43 2 -74.5t10.5 -78t23.5 -80.5t44.5 -71.5t70.5 -61t104.5 -39t142.5 -15.5q74 0 133.5 15.5t98.5 39.5t67.5 60.5t43.5 71.5t24 80.5t11 78.5t2 74v901h107v-901q0 -264 -121.5 -388t-374.5 -124t-375 124t-122 388zM385 1772h49 q8 -35 22 -66t39 -62.5t66 -50t92 -18.5q54 0 96 18.5t67 50t39 62.5t22 66h49q-19 -134 -93.5 -198.5t-179.5 -64.5q-102 0 -174.5 64.5t-93.5 198.5z" />
<glyph unicode="&#x16d;" d="M137 311v713h103v-692q0 -266 245 -266q167 0 359 157v801h102v-1024h-102v154h-4q-190 -174 -396 -174q-307 0 -307 331zM272 1423h50q8 -35 22 -66t39 -62t65.5 -49.5t92.5 -18.5q54 0 96 18.5t66.5 49.5t38.5 62t22 66h49q-19 -134 -93 -198t-179 -64q-102 0 -175 64 t-94 198z" />
<glyph unicode="&#x16e;" horiz-adv-x="1310" d="M158 492v901h108v-901q0 -43 2 -74.5t10.5 -78t23.5 -80.5t44.5 -71.5t70.5 -61t104.5 -39t142.5 -15.5q74 0 133.5 15.5t98.5 39.5t67.5 60.5t43.5 71.5t24 80.5t11 78.5t2 74v901h107v-901q0 -264 -121.5 -388t-374.5 -124t-375 124t-122 388zM506 1618 q0 64 42.5 105.5t106.5 41.5q65 0 108.5 -41.5t43.5 -105.5t-43.5 -107t-108.5 -43q-63 0 -106 43t-43 107zM547 1618q0 -47 31 -79t77 -32q47 0 78 32t31 79q0 46 -31 78.5t-78 32.5q-45 0 -76.5 -32.5t-31.5 -78.5z" />
<glyph unicode="&#x16f;" d="M137 311v713h103v-692q0 -266 245 -266q167 0 359 157v801h102v-1024h-102v154h-4q-190 -174 -396 -174q-307 0 -307 331zM393 1270q0 64 43 105.5t107 41.5q65 0 108 -41.5t43 -105.5t-43 -107t-108 -43q-63 0 -106.5 43t-43.5 107zM434 1270q0 -47 31.5 -79t77.5 -32 q47 0 77.5 31.5t30.5 79.5q0 46 -30.5 78t-77.5 32q-46 0 -77.5 -32t-31.5 -78z" />
<glyph unicode="&#x170;" horiz-adv-x="1310" d="M158 492v901h108v-901q0 -43 2 -74.5t10.5 -78t23.5 -80.5t44.5 -71.5t70.5 -61t104.5 -39t142.5 -15.5q74 0 133.5 15.5t98.5 39.5t67.5 60.5t43.5 71.5t24 80.5t11 78.5t2 74v901h107v-901q0 -264 -121.5 -388t-374.5 -124t-375 124t-122 388zM479 1495l133 246h72 l-143 -246h-62zM698 1495l133 246h72l-143 -246h-62z" />
<glyph unicode="&#x171;" d="M137 311v713h103v-692q0 -266 245 -266q167 0 359 157v801h102v-1024h-102v154h-4q-190 -174 -396 -174q-307 0 -307 331zM387 1147l133 246h72l-143 -246h-62zM606 1147l133 246h72l-143 -246h-62z" />
<glyph unicode="&#x172;" horiz-adv-x="1310" d="M158 492v901h108v-901q0 -43 2 -74.5t10.5 -78t23.5 -80.5t44.5 -71.5t70.5 -61t104.5 -39t142.5 -15.5q74 0 133.5 15.5t98.5 39.5t67.5 60.5t43.5 71.5t24 80.5t11 78.5t2 74v901h107v-901q0 -258 -115.5 -382t-357.5 -130q-59 -49 -97 -111t-38 -115t29 -82.5 t85 -29.5q20 0 37.5 2.5t33.5 9t24 10.5t23.5 13t17.5 10l8 -33q-76 -60 -174 -60q-64 0 -111 34.5t-47 101.5q0 128 149 252q-235 8 -347.5 132t-112.5 378z" />
<glyph unicode="&#x173;" d="M137 311v713h103v-692q0 -266 245 -266q167 0 359 157v801h102v-1024q-78 -39 -131 -111t-53 -135q0 -53 29.5 -82.5t85.5 -29.5q17 0 33 2.5t26.5 5t24.5 9t19 9t18 11t14 8.5l8 -33q-76 -60 -174 -60q-65 0 -111.5 34.5t-46.5 105.5q0 67 48.5 137t129.5 129h-22v154 h-4q-190 -174 -396 -174q-307 0 -307 331z" />
<glyph unicode="&#x174;" horiz-adv-x="1925" d="M96 1393h121l340 -1258h2l342 1258h129l342 -1258h2l340 1258h113l-385 -1403h-142l-335 1231h-4l-336 -1231h-142zM711 1495l217 246h67l217 -246h-61l-190 195l-189 -195h-61z" />
<glyph unicode="&#x175;" horiz-adv-x="1617" d="M113 1024h112l277 -913h4l256 913h98l266 -913h4l267 913h108l-317 -1034h-113l-264 874h-4l-256 -874h-113zM557 1147l217 246h68l217 -246h-62l-190 194l-189 -194h-61z" />
<glyph unicode="&#x176;" horiz-adv-x="1269" d="M96 1393h125l414 -787h4l416 787h116l-483 -901v-492h-106v492zM383 1495l217 246h68l217 -246h-62l-190 195l-189 -195h-61z" />
<glyph unicode="&#x177;" horiz-adv-x="1146" d="M113 1024h114l361 -930h4l332 930h110l-409 -1112q-64 -180 -152 -261t-217 -81q-70 0 -123 12l10 88q44 -10 93 -10q35 0 67 11t55.5 26t47.5 44t38 49.5t32.5 59t26 57.5t23.5 58q3 7 4 10zM322 1147l217 246h67l217 -246h-61l-191 194l-188 -194h-61z" />
<glyph unicode="&#x178;" horiz-adv-x="1269" d="M96 1393h125l414 -787h4l416 787h116l-483 -901v-492h-106v492zM326 1511v215h86v-215h-86zM858 1511v215h86v-215h-86z" />
<glyph unicode="&#x179;" horiz-adv-x="1146" d="M102 0v82l777 1208v4h-736v99h881v-82l-770 -1211v-4h790v-96h-942zM547 1477l133 245h86l-158 -245h-61z" />
<glyph unicode="&#x17a;" horiz-adv-x="962" d="M74 0v76l665 862v4h-635v82h768v-78l-663 -860v-4h680v-82h-815zM446 1147l134 246h86l-158 -246h-62z" />
<glyph unicode="&#x17b;" horiz-adv-x="1146" d="M102 0v82l777 1208v4h-736v99h881v-82l-770 -1211v-4h790v-96h-942zM526 1526v215h92v-215h-92z" />
<glyph unicode="&#x17c;" horiz-adv-x="962" d="M74 0v76l665 862v4h-635v82h768v-78l-663 -860v-4h680v-82h-815zM434 1178v215h92v-215h-92z" />
<glyph unicode="&#x17d;" horiz-adv-x="1146" d="M102 0v82l777 1208v4h-736v99h881v-82l-770 -1211v-4h790v-96h-942zM322 1722h61l188 -194l191 194h61l-217 -245h-67z" />
<glyph unicode="&#x17e;" horiz-adv-x="962" d="M74 0v76l665 862v4h-635v82h768v-78l-663 -860v-4h680v-82h-815zM229 1393h62l188 -195l191 195h61l-217 -246h-68z" />
<glyph unicode="&#x17f;" horiz-adv-x="706" d="M-98 -418l12 82q61 -10 117 -10q111 0 149.5 42.5t38.5 145.5v1268q0 180 64.5 252t208.5 72q41 0 147 -13l-10 -82q-93 11 -117 11q-110 0 -150 -60.5t-40 -193.5v-1268q0 -139 -60.5 -198.5t-210.5 -59.5q-73 0 -149 12z" />
<glyph unicode="&#x2c6;" horiz-adv-x="768" d="M133 1147l217 246h68l217 -246h-62l-190 194l-188 -194h-62z" />
<glyph unicode="&#x2da;" horiz-adv-x="567" d="M133 1270q0 64 43 105.5t107 41.5q65 0 108 -41.5t43 -105.5t-43 -107t-108 -43q-63 0 -106.5 43t-43.5 107zM174 1270q0 -47 31.5 -79t77.5 -32q47 0 77.5 31.5t30.5 79.5q0 46 -30.5 78t-77.5 32q-46 0 -77.5 -32t-31.5 -78z" />
<glyph unicode="&#x2dc;" horiz-adv-x="913" d="M133 1219q65 85 112.5 118t102.5 33q41 0 92.5 -32t98.5 -63.5t75 -31.5q72 0 134 105l32 -31q-70 -139 -166 -139q-39 0 -132 61t-132 61q-42 0 -74.5 -18.5t-107.5 -93.5z" />
<glyph unicode="&#x1e80;" horiz-adv-x="1925" d="M96 1393h121l340 -1258h2l342 1258h129l342 -1258h2l340 1258h113l-385 -1403h-142l-335 1231h-4l-336 -1231h-142zM778 1700h86l133 -246h-61z" />
<glyph unicode="&#x1e81;" horiz-adv-x="1617" d="M113 1024h112l277 -913h4l256 913h98l266 -913h4l267 913h108l-317 -1034h-113l-264 874h-4l-256 -874h-113zM618 1393h87l133 -246h-62z" />
<glyph unicode="&#x1e82;" horiz-adv-x="1925" d="M96 1393h121l340 -1258h2l342 1258h129l342 -1258h2l340 1258h113l-385 -1403h-142l-335 1231h-4l-336 -1231h-142zM938 1477l133 245h86l-158 -245h-61z" />
<glyph unicode="&#x1e83;" horiz-adv-x="1617" d="M113 1024h112l277 -913h4l256 913h98l266 -913h4l267 913h108l-317 -1034h-113l-264 874h-4l-256 -874h-113zM784 1143l134 246h86l-158 -246h-62z" />
<glyph unicode="&#x1e84;" horiz-adv-x="1925" d="M96 1393h121l340 -1258h2l342 1258h129l342 -1258h2l340 1258h113l-385 -1403h-142l-335 1231h-4l-336 -1231h-142zM653 1511v215h86v-215h-86zM1186 1511v215h86v-215h-86z" />
<glyph unicode="&#x1e85;" horiz-adv-x="1617" d="M113 1024h112l277 -913h4l256 913h98l266 -913h4l267 913h108l-317 -1034h-113l-264 874h-4l-256 -874h-113zM500 1178v215h86v-215h-86zM1032 1178v215h86v-215h-86z" />
<glyph unicode="&#x1ef2;" horiz-adv-x="1269" d="M96 1393h125l414 -787h4l416 787h116l-483 -901v-492h-106v492zM446 1700h86l134 -246h-62z" />
<glyph unicode="&#x1ef3;" horiz-adv-x="1146" d="M113 1024h114l361 -930h4l332 930h110l-409 -1112q-64 -180 -152 -261t-217 -81q-70 0 -123 12l10 88q44 -10 93 -10q35 0 67 11t55.5 26t47.5 44t38 49.5t32.5 59t26 57.5t23.5 58q3 7 4 10zM381 1393h86l133 -246h-61z" />
<glyph unicode="&#x2000;" horiz-adv-x="891" />
<glyph unicode="&#x2001;" horiz-adv-x="1782" />
<glyph unicode="&#x2002;" horiz-adv-x="891" />
<glyph unicode="&#x2003;" horiz-adv-x="1782" />
<glyph unicode="&#x2004;" horiz-adv-x="594" />
<glyph unicode="&#x2005;" horiz-adv-x="445" />
<glyph unicode="&#x2006;" horiz-adv-x="297" />
<glyph unicode="&#x2007;" horiz-adv-x="297" />
<glyph unicode="&#x2008;" horiz-adv-x="222" />
<glyph unicode="&#x2009;" horiz-adv-x="356" />
<glyph unicode="&#x200a;" horiz-adv-x="99" />
<glyph unicode="&#x2010;" horiz-adv-x="1024" d="M137 500v86h748v-86h-748z" />
<glyph unicode="&#x2011;" horiz-adv-x="1024" d="M137 500v86h748v-86h-748z" />
<glyph unicode="&#x2012;" horiz-adv-x="1024" d="M137 500v86h748v-86h-748z" />
<glyph unicode="&#x2013;" horiz-adv-x="1417" d="M137 500v86h1143v-86h-1143z" />
<glyph unicode="&#x2014;" horiz-adv-x="1556" d="M137 500v86h1280v-86h-1280z" />
<glyph unicode="&#x2018;" horiz-adv-x="378" d="M137 891v235l58 267h41l-31 -267h35v-235h-103z" />
<glyph unicode="&#x2019;" horiz-adv-x="378" d="M137 1157v236h103v-236l-56 -266h-41l31 266h-37z" />
<glyph unicode="&#x201a;" horiz-adv-x="378" d="M137 -31v236h103v-236l-56 -266h-41l31 266h-37z" />
<glyph unicode="&#x201c;" horiz-adv-x="829" d="M137 891v235l58 267h41l-31 -267h35v-235h-103zM588 891v235q9 44 28.5 133.5t28.5 133.5h41l-31 -267h35v-235h-102z" />
<glyph unicode="&#x201d;" horiz-adv-x="829" d="M137 1157v236h103v-236l-56 -266h-41l31 266h-37zM588 1157v236h102v-236l-55 -266h-41l31 266h-37z" />
<glyph unicode="&#x201e;" horiz-adv-x="829" d="M137 -31v236h103v-236l-56 -266h-41l31 266h-37zM588 -31v236h102v-236l-55 -266h-41l31 266h-37z" />
<glyph unicode="&#x2026;" horiz-adv-x="1198" d="M137 0v236h103v-236h-103zM547 0v236h102v-236h-102zM956 0v236h103v-236h-103z" />
<glyph unicode="&#x202f;" horiz-adv-x="356" />
<glyph unicode="&#x2039;" horiz-adv-x="778" d="M137 479v66l502 340v-94l-393 -279l393 -279v-96z" />
<glyph unicode="&#x203a;" horiz-adv-x="778" d="M137 137v96l395 279l-395 279v94l502 -340v-66z" />
<glyph unicode="&#x205f;" horiz-adv-x="445" />
<glyph unicode="&#x20ac;" horiz-adv-x="1433" d="M123 520v66h147q-4 78 -4 121q0 16 1 49t1 51h-145v65h156q16 118 55.5 214t105.5 170.5t166 115.5t228 41q75 0 145 -14t115 -30t95.5 -45.5t68.5 -43t53 -41.5l-39 -84q-193 160 -422 160q-107 0 -189.5 -34.5t-135.5 -97.5t-84 -139.5t-46 -171.5h445l-13 -65h-446 q-2 -35 -2 -100q0 -43 4 -121h457l-13 -66h-428q12 -74 34 -137.5t59 -121t86 -98t118.5 -64t153.5 -23.5q227 0 422 162l39 -84q-35 -28 -53 -41.5t-68.5 -43t-95.5 -45.5t-115 -30t-145 -14q-125 0 -224.5 41t-165 115.5t-106 170t-57.5 213.5h-158z" />
<glyph unicode="&#x2122;" horiz-adv-x="1607" d="M92 1331v62h520v-62h-227v-643h-66v643h-227zM815 688v705h88l258 -596h4l262 596h89v-705h-68v576h-4l-258 -576h-53l-250 576h-4v-576h-64z" />
<glyph unicode="&#x25fc;" horiz-adv-x="1024" d="M0 0v1024h1024v-1024h-1024z" />
</font>
</defs>
</svg>
